3d-tracker.ru • Просмотр темы - Шаг вперёд: Всё или ничего в 3Д / Крок вперед. Все або нічого в 3Д / Step Up All In 3D (2014) [miniBDRip, 1080p] Half SideBySide / Горизонтальная анаморфная стереопара

Регистрация Имя: Пароль: Запомнить Забыли пароль?



Правила форума





Начать новую тему Ответить на тему  [ 1 сообщение ] 
Статистика раздачи
Размер: 2.46 ГБ | Зарегистрирован: 11 дек 2014, 16:52 | .torrent скачан: 8
Сиды: 4 [0 байт/сек]    Личи: 22 [0 байт/сек]
Автор Сообщение
 СообщениеДобавлено: 11 дек 2014, 16:56 
Не в сети
гуру
Аватара пользователя
Зарегистрирован: 17 дек 2012, 15:37
Торренты: 912
Раздал: 299.4 ТБ 
Скачал: 7.77 ТБ 
Ратио: 38.527
Спасибо: 4785 / 0
Сообщения: 1215
Комментарии: 587
Откуда: Донецк - это Украина!

Шаг вперёд: Всё или ничего в 3Д
Крок вперед. Все або нічого в 3Д
Step Up All In 3D


Год выпуска: 2014
Производство: США, Offspring Entertainment, Summit Entertainment
Жанр: Драма, Мелодрама, Музыка

Описание фильма:
В переливающемся огнями Лас-Вегасе лучшие танцоры планеты сойдутся в батле, который решит все. Талантливый самоучка Шон и красотка Энди, мечтающие о славе и богатстве, примут участие в популярном реалити-шоу и бросят вызов «непобедимым» командам противников, а главное — самим себе. Смогут ли они преодолеть страх, пережить предательство и обуздать страсть, чтобы стать первыми и осуществить свои мечты?

Режиссер: Триш Си
Продюсер: Дженнифер Джибгот, Адам Шенкман, Джефф Диаз
Актеры: Райан Гузман, Бриана Эвиган, Стивен Босс, Миша Гэбриел Хэмилтон, Изабелла Мико, Элисон Стоунер, Адам Дж. Севани, Стивен Стево Джонс, Дэвид Шрейбман, Мари Кода

Перевод: Дублированный [iTunes + Mic]
Субтитры: Отсутствуют

Рейтинг MPAA: PG-13
Возраст: 12+

Дата мировой премьеры: 9 июля 2014
Дата российской премьеры: 17 июля 2014, «Централ Партнершип»
Дата выхода DVD релиза: 16 декабря 2014, «CD Land»

Продолжительность: 01:51:51
Качество видео: miniBDRip

Видеокодек: MPEG-4 AVC/H.264
Битрейт видео: 1867 Кбит/сек
Размер кадра: 1920x1080
Аудио 1: AC3 5.1, 384 kbps [Русский]
Аудио 2: AC3 2.0, 192 kbps [Українська]
Аудио 3: AC3 5.1, 640 kbps [English]

Общее
Уникальный идентификатор : 212350656440409762768751525413974483329 (0x9FC13FB1058FADCB813EF7D5A8E0A181)
Полное имя : D:\Download\Step Up All In 3D 2014 miniBDRip 1080p halfSbS (IgorekSh) [fan-HD.ru].mkv
Формат : Matroska
Версия формата : Version 2
Размер файла : 2,46 Гбайт
Продолжительность : 1 ч. 51 м.
Общий поток : 3146 Кбит/сек
Название фильма : fan-HD.ru
Дата кодирования : UTC 2014-12-07 11:59:07
Программа кодирования : mkvmerge v4.0.0 ('The Stars were mine') сборка от Jun 6 2010 16:18:42
Библиотека кодирования : libebml v1.0.0 + libmatroska v1.0.0

Видео
Идентификатор : 1
Формат : AVC
Формат/Информация : Advanced Video Codec
Профиль формата : High@L4.1
Параметр CABAC формата : Да
Параметр ReFrames формата : 4 кадра
Идентификатор кодека : V_MPEG4/ISO/AVC
Продолжительность : 1 ч. 51 м.
Битрейт : 1867 Кбит/сек
Номинальный битрейт : 2015 Кбит/сек
Ширина : 1920 пикселей
Высота : 1080 пикселей
Соотношение сторон : 16:9
Режим частоты кадров : Постоянный
Частота кадров : 23,976 кадра/сек
Цветовое пространство : YUV
Субдискретизация насыщенности : 4:2:0
Битовая глубина : 8 бит
Тип развёртки : Прогрессивная
Бит/(Пиксели*Кадры) : 0.038
Размер потока : 1,46 Гбайт (59%)
Заголовок : IgorekSh [fan-HD.ru]
Библиотека кодирования : x264 core 142 r2479 dd79a61
Настройки программы : cabac=1 / ref=4 / deblock=1:-1:-1 / analyse=0x3:0x133 / me=umh / subme=9 / psy=1 / psy_rd=1.00:0.15 / mixed_ref=1 / me_range=24 / chroma_me=1 / trellis=2 / 8x8dct=1 / cqm=0 / deadzone=21,11 / fast_pskip=0 / chroma_qp_offset=-3 / threads=48 / lookahead_threads=4 / sliced_threads=0 / nr=0 / decimate=1 / interlaced=0 / bluray_compat=0 / constrained_intra=0 / bframes=3 / b_pyramid=2 / b_adapt=2 / b_bias=0 / direct=3 / weightb=1 / open_gop=0 / weightp=2 / keyint=250 / keyint_min=23 / scenecut=40 / intra_refresh=0 / rc_lookahead=60 / rc=2pass / mbtree=1 / bitrate=2015 / ratetol=1.0 / qcomp=0.60 / qpmin=0 / qpmax=69 / qpstep=4 / cplxblur=20.0 / qblur=0.5 / vbv_maxrate=31250 / vbv_bufsize=31250 / nal_hrd=none / filler=0 / ip_ratio=1.40 / aq=1:1.00
Язык : English
Default : Да
Forced : Нет
Основные цвета : BT.709
Коэффициенты матрицы : BT.709

Аудио #1
Идентификатор : 2
Формат : AC-3
Формат/Информация : Audio Coding 3
Расширение режима : CM (complete main)
Параметр Endianness формата : Big
Идентификатор кодека : A_AC3
Продолжительность : 1 ч. 51 м.
Вид битрейта : Постоянный
Битрейт : 384 Кбит/сек
Каналы : 6 каналов
Расположение каналов : Front: L C R, Side: L R, LFE
Частота : 48,0 КГц
Битовая глубина : 16 бит
Метод сжатия : С потерями
Размер потока : 307 Мбайт (12%)
Заголовок : fan-HD.ru
Язык : Russian
Default : Нет
Forced : Нет

Аудио #2
Идентификатор : 3
Формат : AC-3
Формат/Информация : Audio Coding 3
Расширение режима : CM (complete main)
Параметр Endianness формата : Big
Идентификатор кодека : A_AC3
Продолжительность : 1 ч. 51 м.
Вид битрейта : Постоянный
Битрейт : 192 Кбит/сек
Каналы : 2 канала
Расположение каналов : Front: L R
Частота : 48,0 КГц
Битовая глубина : 16 бит
Метод сжатия : С потерями
Размер потока : 154 Мбайт (6%)
Заголовок : fan-HD.ru
Язык : Ukrainian
Default : Нет
Forced : Нет

Аудио #3
Идентификатор : 4
Формат : AC-3
Формат/Информация : Audio Coding 3
Расширение режима : CM (complete main)
Параметр Endianness формата : Big
Идентификатор кодека : A_AC3
Продолжительность : 1 ч. 51 м.
Вид битрейта : Постоянный
Битрейт : 640 Кбит/сек
Каналы : 6 каналов
Расположение каналов : Front: L C R, Side: L R, LFE
Частота : 48,0 КГц
Битовая глубина : 16 бит
Метод сжатия : С потерями
Размер потока : 512 Мбайт (20%)
Заголовок : fan-HD.ru
Язык : English
Default : Нет
Forced : Нет

Меню
00:00:00.000 : :00:00:00.000
00:05:40.298 : :00:05:40.298
00:12:12.690 : :00:12:12.690
00:19:04.977 : :00:19:04.977
00:26:09.693 : :00:26:09.693
00:32:55.849 : :00:32:55.849
00:39:16.813 : :00:39:16.813
00:46:30.287 : :00:46:30.287
00:55:57.521 : :00:55:57.521
01:03:04.197 : :01:03:04.197
01:07:06.189 : :01:07:06.189
01:14:23.000 : :01:14:23.000
01:22:08.298 : :01:22:08.298
01:29:23.400 : :01:29:23.400
01:35:56.584 : :01:35:56.584
01:43:34.083 : :01:43:34.083


Информация о торренте
Торрент:  Зарегистрирован [11 дек 2014, 16:52] Для скачивания необходимо Зарегистрироваться!



Если Вы уже зарегистрированы, то авторизуйтесь на трекере!
Статус:  
Размер:  2.46 ГБ (2 639 405 389 байт)
Приватный:  Нет (DHT включён)
Хэш:  1f943be4171a50db636f
b2551e277ca48248e314
Здоровье:  18%
.torrent скачан:  8
Как тут качать  Правила, основные инструкции, FAQ-и




 Профиль  
 
Показать сообщения за:  Поле сортировки  
Начать новую тему Ответить на тему  [ 1 сообщение ] 


Кто сейчас на трекере

Сейчас этот форум просматривают: нет зарегистрированных пользователей и гости: 1


Вы не можете начинать темы
Вы не можете отвечать на сообщения
Вы не можете редактировать свои сообщения
Вы не можете удалять свои сообщения
Вы не можете добавлять вложения

Найти:


Правообладателям

!ВНИМАНИЕ!
Ресурс не предоставляет электронные версии произведений, а занимается лишь коллекционированием и каталогизацией ссылок, присылаемых и публикуемых на форуме нашими читателями. Если вы являетесь правообладателем какого-либо представленного материала и не желаете чтобы ссылка на него находилась в нашем каталоге, свяжитесь с нами и мы незамедлительно удалим её. Файлы для обмена на трекере предоставлены пользователями сайта, и администрация не несёт ответственности за их содержание. Просьба не заливать файлы, защищенные авторскими правами, а также файлы нелегального содержания!
cron
Вверх страницы
Вниз страницы
ppkBB3cker v.2 © 2008-2011 @ PPK