3d-tracker.ru • Просмотр темы - Уличные танцы 2 в 3Д / Street Dance 2 3D

Регистрация Имя: Пароль: Запомнить Забыли пароль?



Правила форума





Начать новую тему Ответить на тему  [ 1 сообщение ] 
Статистика раздачи
Размер: 8.48 ГБ | Зарегистрирован: 25 июл 2012, 23:57 | .torrent скачан: 48
Сиды: 60 [0 байт/сек]    Личи: 15 [0 байт/сек]
Автор Сообщение
 СообщениеДобавлено: 25 июл 2012, 23:57 
Не в сети
заглянувший
Аватара пользователя
Зарегистрирован: 09 янв 2012, 18:28
Торренты: 20
Раздал: 822.65 ГБ 
Скачал: 251.06 ГБ 
Ратио: 3.277
Спасибо: 287 / 5
Сообщения: 22
Комментарии: 2

Уличные танцы 2 / Street Dance 2
«В два раза больше энергии и страсти»

Год выпуска: 2012
Страна: Германия , Великобритания
Жанр: мелодрама, музыка
Продолжительность: 01:24:56
Перевод: Профессиональный (дублированный) лицензия
Русские субтитры: нет
Режиссер на русском: Макс Джива / Дания Пасквини
Режиссер на английском: Max Giwa/ Dania Pasquini
В ролях: София Бутелла, Джордж Сэмпсон, Том Конти, Фальк Хеншел, Стефани Нгуйен, Элла Рэгг, Джоанна Джеффрис, Джеймс Майкл Ранкин, Ли Крэвен, Элизабетта Ди Карло
Описание: Уличный танцор Эш жаждет реванша за проигрыш на конкурсе Streetdance, и хочет собрать команду, которой не будет равных. В поисках, которые забрасывают его в самые разные уголки мира, Эш встречает девушку Еву, танцующую сальсу, и влюбляется в нее. В Еве он видит свое счастье, свой собственный танец, свою победу… Но завоевать сердце этой девушки не так просто.
Свобода самовыражения и мастерство импровизации, страсть сальсы и дерзость ринга — все это танцы, танцы, танцы — в школах, в клубах, на улицах Рима, Парижа, Лондона, Нью-Йорка.



Сэмпл



Дополнительная информация по релизу: релиз от z-man
Качество: BDrip
Контейнер: MKV
Формат 3D: Half SideBySide / Горизонтальная анаморфная стереопара
Порядок ракурсов: левый ракурс первый
Видео кодек: x264
Аудио кодек: AC3
Видео: AVC / 1920х1080p / 23,976 fps / 13,2 Mbps
Аудио 1: Русский / AC3 / 48 KHz / 5.1 ch / 384 Kbps / Dub
Аудио 2: Английский / AC3 / 48 KHz / 5.1 ch / 448 Kbps (оригинал)
Субтитры: нет
Общее
Уникальный идентификатор : 216109696771074835200383879908058767093 (0xA29536B05992BFCBA8769B3D40409EF5)
Полное имя : E:\кино\Streetdance.2.2012.3D.H-SBS.Rus(CAMRip).ENG.AC3.1080p.Bluray.x264.z-man .mkv
Формат : Matroska
Версия формата : Version 2
Размер файла : 8,44 Гбайт
Продолжительность : 1 ч. 24 м.
Общий поток : 14,2 Мбит/сек
Дата кодирования : UTC 2012-07-25 06:34:05
Программа кодирования : mkvmerge v3.4.0 ('Rapunzel') сборка от May 15 2010 09:38:20
Библиотека кодирования : libebml v0.8.0 + libmatroska v0.9.0
Видео
Идентификатор : 1
Формат : AVC
Формат/Информация : Advanced Video Codec
Профиль формата : High@L4.1
MultiView_Count : 2
MultiView_Layout : Right Eye
Параметр CABAC формата : Да
Параметр ReFrames формата : 4 кадра
Идентификатор кодека : V_MPEG4/ISO/AVC
Продолжительность : 1 ч. 24 м.
Битрейт : 13,2 Мбит/сек
Ширина : 1920 пикселей
Высота : 1080 пикселей
Соотношение сторон : 16:9
Частота кадров : 23,976 кадра/сек
Цветовое пространство : YUV
Субдискретизация насыщенности : 4:2:0
Битовая глубина : 8 бит
Тип развёртки : Прогрессивная
Бит/(Пиксели*Кадры) : 0.265
Размер потока : 7,82 Гбайт (93%)
Заголовок : Streetdance.2.2012.3D.H-SBS.ENG.DTS.1080p.Bluray.x264.z-man
Библиотека кодирования : x264 core 125 r2208 d9d2288
Настройки программы : cabac=1 / ref=4 / deblock=1:-3:-3 / analyse=0x3:0x113 / me=umh / subme=7 / psy=1 / psy_rd=1.00:0.15 / mixed_ref=1 / me_range=16 / chroma_me=1 / trellis=1 / 8x8dct=1 / cqm=0 / deadzone=21,11 / fast_pskip=1 / chroma_qp_offset=-3 / threads=18 / lookahead_threads=3 / sliced_threads=0 / nr=0 / decimate=1 / interlaced=0 / bluray_compat=0 / constrained_intra=0 / bframes=3 / b_pyramid=2 / b_adapt=1 / b_bias=0 / direct=3 / weightb=1 / open_gop=0 / weightp=2 / keyint=250 / keyint_min=23 / scenecut=40 / intra_refresh=0 / rc_lookahead=40 / rc=crf / mbtree=1 / crf=18.0 / qcomp=0.60 / qpmin=10 / qpmax=69 / qpstep=4 / ip_ratio=1.40 / aq=1:1.00
Язык : English
Default : Нет
Forced : Нет
Аудио #1
Идентификатор : 2
Формат : AC-3
Формат/Информация : Audio Coding 3
Расширение режима : CM (complete main)
Параметр Endianness формата : Big
Идентификатор кодека : A_AC3
Продолжительность : 1 ч. 24 м.
Вид битрейта : Постоянный
Битрейт : 320 Кбит/сек
Каналы : 2 канала
Расположение каналов : Front: L R
Частота : 48,0 КГц
Битовая глубина : 16 бит
Метод сжатия : С потерями
Размер потока : 194 Мбайт (2%)
Заголовок : Dub.[Звук с CAMRip]
Язык : Russian
Default : Да
Forced : Да
Аудио #2
Идентификатор : 3
Формат : AC-3
Формат/Информация : Audio Coding 3
Расширение режима : CM (complete main)
Параметр Endianness формата : Big
Идентификатор кодека : A_AC3
Продолжительность : 1 ч. 24 м.
Вид битрейта : Постоянный
Битрейт : 448 Кбит/сек
Каналы : 6 каналов
Расположение каналов : Front: L C R, Side: L R, LFE
Частота : 48,0 КГц
Битовая глубина : 16 бит
Метод сжатия : С потерями
Размер потока : 272 Мбайт (3%)
Заголовок : Original
Язык : English
Default : Нет
Forced : Нет
Меню
00:00:00.000 : en:00:00:00.000
00:10:29.796 : en:00:10:29.796
00:16:55.973 : en:00:16:55.973
00:22:43.612 : en:00:22:43.612
00:29:28.058 : en:00:29:28.058
00:38:23.968 : en:00:38:23.968
00:43:38.115 : en:00:43:38.115
00:49:39.059 : en:00:49:39.059
00:57:08.759 : en:00:57:08.759
01:02:48.014 : en:01:02:48.014
01:07:11.903 : en:01:07:11.903
01:13:45.296 : en:01:13:45.296



Информация о торренте
Торрент:  Зарегистрирован [25 июл 2012, 23:57] Для скачивания необходимо Зарегистрироваться!



Если Вы уже зарегистрированы, то авторизуйтесь на трекере!
Статус:   изменил edis (28 июл 2012, 13:48)
Размер:  8.48 ГБ (9 104 228 552 байт)
Приватный:  Нет (DHT включён)
Хэш:  4546655007386362ad32
72eb86c81fdc51526768
Здоровье:  100%
.torrent скачан:  48
Как тут качать  Правила, основные инструкции, FAQ-и




 Профиль  
 
Показать сообщения за:  Поле сортировки  
Начать новую тему Ответить на тему  [ 1 сообщение ] 


Кто сейчас на трекере

Сейчас этот форум просматривают: нет зарегистрированных пользователей и гости: 1


Вы не можете начинать темы
Вы не можете отвечать на сообщения
Вы не можете редактировать свои сообщения
Вы не можете удалять свои сообщения
Вы не можете добавлять вложения

Найти:


Правообладателям

!ВНИМАНИЕ!
Ресурс не предоставляет электронные версии произведений, а занимается лишь коллекционированием и каталогизацией ссылок, присылаемых и публикуемых на форуме нашими читателями. Если вы являетесь правообладателем какого-либо представленного материала и не желаете чтобы ссылка на него находилась в нашем каталоге, свяжитесь с нами и мы незамедлительно удалим её. Файлы для обмена на трекере предоставлены пользователями сайта, и администрация не несёт ответственности за их содержание. Просьба не заливать файлы, защищенные авторскими правами, а также файлы нелегального содержания!
cron
Вверх страницы
Вниз страницы
ppkBB3cker v.2 © 2008-2011 @ PPK