3d-tracker.ru • Просмотр темы - Натали в 3Д / Natali 3D (BDrip-AVC)Half SideBySide / Горизонтальная анаморфная стереопара

Регистрация Имя: Пароль: Запомнить Забыли пароль?



Правила форума





Начать новую тему Ответить на тему  [ 1 сообщение ] 
Статистика раздачи
Размер: 14.2 ГБ | Зарегистрирован: 27 мар 2013, 00:39 | .torrent скачан: 72
Сиды: 32 [0 байт/сек]    Личи: 49 [0 байт/сек]
Автор Сообщение
 СообщениеДобавлено: 24 янв 2013, 03:39 
Не в сети
Опытный
Зарегистрирован: 05 окт 2012, 01:30
Торренты: 57
Раздал: 18.97 ТБ 
Скачал: 1.67 ТБ 
Ратио: 11.329
Спасибо: 929 / 13
Сообщения: 61
Комментарии: 12
Откуда: Киев

Оригинальное название:Natalie 3D
Страна: Южная Корея
Продолжительность: 01:29:47
Дата выхода: 2010
Жанр: эротика, мелодрама
Режиссёр: Чжу Кьон-чжун / Kyung-Jung Ju
В ролях: Ли Сунг Чжа / Lee Seong-jae, Ким Чжи Хун / Kim Ji-hoon-I, Ким Ки Ён / Kim Gi-yeon-I и др.
О фильме:Молодой профессор, преподающий теорию искусства в университете страстно увлекается одной из своих молодых студенток. Он создает одну из своих лучших работ, которой дает имя Натали. С течением времени их бурный роман заканчивается тем, что девушка уходит сказав, что вернется к художнику через десять лет для того, чтобы сравнить себя со скульптурой, моделью которой она послужила.





MediaInfo: Natali.3D.HSBS.BDRip.1080p.2010.mkv
Формат : Matroska
Версия формата : Version 2
Размер файла : 14,2 Гбайт
Продолжительность : 1 ч. 29 м.
Общий поток : 22,6 Мбит/сек
Дата кодирования : UTC 2011-04-08 15:40:31
Программа кодирования : mkvmerge v4.6.0 ('Still Crazy After All These Years') сборка от Mar 10 2011 02:50:32
Библиотека кодирования : libebml v1.2.0 + libmatroska v1.1.0

Видео
Идентификатор : 1
Формат : AVC
Формат/Информация : Advanced Video Codec
Профиль формата : High@L4.1
Параметр CABAC формата : Да
Параметр ReFrames формата : 4 кадра
Режим смешивания : Header stripping
Идентификатор кодека : V_MPEG4/ISO/AVC
Продолжительность : 1 ч. 29 м.
Битрейт : 18,7 Мбит/сек
Ширина : 1920 пикселей
Высота : 1080 пикселей
Соотношение сторон : 16:9
Частота кадров : 23,976 кадра/сек
Цветовое пространство : YUV
Субдискретизация насыщенности : 4:2:0
Битовая глубина : 8 бит
Тип развёртки : Прогрессивная
Бит/(Пиксели*Кадры) : 0.377
Размер потока : 11,7 Гбайт (83%)
Заголовок : Natali 3D Release BD3D.SU//Натали 3D Релиз BD3D.SU
Библиотека кодирования : x264 core 114 r1924 08d04a4
Настройки программы : cabac=1 / ref=4 / deblock=1:-1:-1 / analyse=0x3:0x113 / me=umh / subme=9 / psy=1 / psy_rd=1.00:0.15 / mixed_ref=1 / me_range=16 / chroma_me=1 / trellis=1 / 8x8dct=1 / cqm=0 / deadzone=21,11 / fast_pskip=1 / chroma_qp_offset=-3 / threads=18 / sliced_threads=0 / nr=0 / decimate=1 / interlaced=0 / constrained_intra=0 / bframes=3 / b_pyramid=2 / b_adapt=1 / b_bias=0 / direct=3 / weightb=1 / open_gop=0 / weightp=2 / keyint=250 / keyint_min=23 / scenecut=40 / intra_refresh=0 / rc_lookahead=40 / rc=crf / mbtree=1 / crf=18.0 / qcomp=0.60 / qpmin=10 / qpmax=69 / qpstep=4 / ip_ratio=1.40 / aq=1:1.00
Default : Да
Forced : Нет

Аудио #1
Идентификатор : 2
Формат : AC-3
Формат/Информация : Audio Coding 3
Расширение режима : CM (complete main)
Параметр Endianness формата : Big
Идентификатор кодека : A_AC3
Продолжительность : 1 ч. 29 м.
Вид битрейта : Постоянный
Битрейт : 448 Кбит/сек
Каналы : 6 каналов
Расположение каналов : Front: L C R, Side: L R, LFE
Частота : 48,0 КГц
Битовая глубина : 16 бит
Метод сжатия : С потерями
Размер потока : 288 Мбайт (2%)
Язык : Russian
Default : Да
Forced : Нет

Аудио #2
Идентификатор : 3
Формат : DTS
Формат/Информация : Digital Theater Systems
Идентификатор кодека : A_DTS
Продолжительность : 1 ч. 29 м.
Вид битрейта : Постоянный
Битрейт : 1510 Кбит/сек
Каналы : 6 каналов
Расположение каналов : Front: L C R, Side: L R, LFE
Частота : 48,0 КГц
Битовая глубина : 24 бит
Метод сжатия : С потерями
Размер потока : 970 Мбайт (7%)
Язык : Korean
Default : Нет
Forced : Нет

Аудио #3
Идентификатор : 4
Формат : DTS
Формат/Информация : Digital Theater Systems
Идентификатор кодека : A_DTS
Продолжительность : 1 ч. 29 м.
Вид битрейта : Постоянный
Битрейт : 1510 Кбит/сек
Каналы : 6 каналов
Расположение каналов : Front: L C R, Side: L R, LFE
Частота : 48,0 КГц
Битовая глубина : 24 бит
Метод сжатия : С потерями
Размер потока : 970 Мбайт (7%)
Язык : Chinese
Default : Нет
Forced : Нет





Перевод: Любительский (один голос)
Контейнер: mkv
Формат аудио: AC3
Язык 1: Русский: AC3, 448 kb/s (6 ch)
Язык 2: Корейский: DTS, 1510 kb/s (6 ch)
Язык 3: Китайский: DTS, 1510 kb/s (6 ch)
Формат видео: x264
Качество видео: BDrip
Размер видео: 1920×1080
формат 3D: Half SideBySide / Горизонтальная анаморфная стереопара
Информация о торренте
Торрент:  Зарегистрирован [27 мар 2013, 00:39] Для скачивания необходимо Зарегистрироваться!



Если Вы уже зарегистрированы, то авторизуйтесь на трекере!
Статус:   изменил edis (27 мар 2013, 19:49)
Размер:  14.2 ГБ (15 248 443 679 байт)
Приватный:  Нет (DHT включён)
Хэш:  cf3b859a3e3d6d0696c0
7d4d23d5e226410b3dfd
Здоровье:  65%
.torrent скачан:  72
Как тут качать  Правила, основные инструкции, FAQ-и




 Профиль  
 
Показать сообщения за:  Поле сортировки  
Начать новую тему Ответить на тему  [ 1 сообщение ] 


Кто сейчас на трекере

Сейчас этот форум просматривают: нет зарегистрированных пользователей и гости: 2


Вы не можете начинать темы
Вы не можете отвечать на сообщения
Вы не можете редактировать свои сообщения
Вы не можете удалять свои сообщения
Вы не можете добавлять вложения

Найти:
 cron

Правообладателям

!ВНИМАНИЕ!
Ресурс не предоставляет электронные версии произведений, а занимается лишь коллекционированием и каталогизацией ссылок, присылаемых и публикуемых на форуме нашими читателями. Если вы являетесь правообладателем какого-либо представленного материала и не желаете чтобы ссылка на него находилась в нашем каталоге, свяжитесь с нами и мы незамедлительно удалим её. Файлы для обмена на трекере предоставлены пользователями сайта, и администрация не несёт ответственности за их содержание. Просьба не заливать файлы, защищенные авторскими правами, а также файлы нелегального содержания!
cron
Вверх страницы
Вниз страницы
ppkBB3cker v.2 © 2008-2011 @ PPK