3d-tracker.ru • Просмотр темы - Снежная битва в 3Д / La guerre des tuques 3D (2015) [1080p, Half OverUnder / Вертикальная анаморфная стереопара на весь экран]

Регистрация Имя: Пароль: Запомнить Забыли пароль?



Правила форума





Начать новую тему Ответить на тему  [ 1 сообщение ] 
Статистика раздачи
Размер: 7.82 ГБ | Зарегистрирован: 08 янв 2017, 11:39 | .torrent скачан: 3
Сиды: 1 [0 байт/сек]    Личи: 0 [0 байт/сек]
Автор Сообщение
 СообщениеДобавлено: 08 янв 2017, 11:39 
Не в сети
Супермодератор
Аватара пользователя
Зарегистрирован: 15 апр 2014, 21:21
Торренты: 438
Раздал: 33.29 ТБ 
Скачал: 1.83 ТБ 
Ратио: 29.261
Спасибо: 2465 / 165
Сообщения: 580
Комментарии: 259
Откуда: РОССИЯ, ЦФО

Название: Снежная битва
Оригинальное название: La guerre des tuques 3D
Год выпуска: 2015
Жанр: Мультфильм, полнометражный, детский
Выпущено: Канада, CarpeDiem Film & TV

Режиссер: Жан-Франсуа Пуле, Франсуа Бриссон
В ролях: Анджела Галуппо, Марилуп Вульф, Люсинда Дэвис, Николас Савард-Хербер, Софи Кадьо, Энн Касабонн, Хелен Буржуа Леклерк, Росс Линч, Катрин Трюдо, Жильдор Руа
О фильме: Действия мультфильма происходят в небольшом канадском городке. Детки этого города, как и везде, с нетерпением ждут, когда же выпадет первый снег. Ведь зима — это время не только для получения подарков и празднований, а и для веселого провождения времени. На улице, когда выпадает снег, можно кататься на санках, лепить снежные скульптуры и играть в снежки. Домой детки бегут только когда проголодаются или сильно замерзнут. И вот детишки решили придумать для себя новую забаву.

Качество: BDRip (1080p)
Видео: MPEG-4 AVC, 11900 Кбит/с, 1920x1080
Аудио: Русский, украинский (AC3, 6 ch, 384 Кбит/с), французский (AC3, 6 ch, 640 Кбит/с)
Размер: 7.82 ГБ
Продолжительность: 01:22:20
Перевод: Дублированный

Формат 3D: Half OverUnder / Вертикальная анаморфная стереопара (16:9)
Порядок ракурсов: Верхний ракурс первый.
Полное имя : E:\AV\La.guerre.des.tuques.3D.2016.1080p.Zoom.HOU.mkv
Формат : Matroska
Версия формата : Version 4 / Version 2
Размер файла : 7,82 Гбайт
Продолжительность : 1 ч. 22 м.
Общий поток : 13,6 Мбит/сек
Название фильма : La.guerre.des.tuques.3D.2016.Zoom.HOU
Дата кодирования : UTC 2017-01-08 05:32:14
Программа кодирования : mkvmerge v7.1.0 ('Good Love') 64bit built on Jul 27 2014 13:06:55
Библиотека кодирования : libebml v1.3.0 + libmatroska v1.4.1
DURATION : 01:22:20.288000000

Видео
Идентификатор : 1
Формат : AVC
Формат/Информация : Advanced Video Codec
Профиль формата : High@L4.1
Параметр CABAC формата : Да
Параметр ReFrames формата : 4 кадра
Идентификатор кодека : V_MPEG4/ISO/AVC
Продолжительность : 1 ч. 22 м.
Битрейт : 11,9 Мбит/сек
Ширина : 1920 пикселей
Высота : 1080 пикселей
Соотношение сторон : 16:9
Режим частоты кадров : Постоянный
Частота кадров : 23,976 кадра/сек
Цветовое пространство : YUV
Субдискретизация насыщенности : 4:2:0
Битовая глубина : 8 бит
Тип развёртки : Прогрессивная
Бит/(Пиксели*Кадры) : 0.240
Размер потока : 6,86 Гбайт (88%)
Библиотека кодирования : x264 core 128 r2216M 198a7ea
Язык : English
Default : Да
Forced : Нет

Аудио #1
Идентификатор : 2
Формат : AC-3
Формат/Информация : Audio Coding 3
Расширение режима : CM (complete main)
Параметр Endianness формата : Big
Идентификатор кодека : A_AC3
Продолжительность : 1 ч. 22 м.
Вид битрейта : Постоянный
Битрейт : 384 Кбит/сек
Каналы : 6 каналов
Расположение каналов : Front: L C R, Side: L R, LFE
Частота : 48,0 КГц
Битовая глубина : 16 бит
Размер потока : 226 Мбайт (3%)
Заголовок : Дубляж - iTunes
Язык : Russian
Default : Да
Forced : Нет

Аудио #2
Идентификатор : 3
Формат : AC-3
Формат/Информация : Audio Coding 3
Расширение режима : CM (complete main)
Параметр Endianness формата : Big
Идентификатор кодека : A_AC3
Продолжительность : 1 ч. 22 м.
Вид битрейта : Постоянный
Битрейт : 384 Кбит/сек
Каналы : 6 каналов
Расположение каналов : Front: L C R, Side: L R, LFE
Частота : 48,0 КГц
Битовая глубина : 16 бит
Размер потока : 226 Мбайт (3%)
Заголовок : Дубляж - IPTV
Язык : Ukrainian
Default : Нет
Forced : Нет

Аудио #3
Идентификатор : 4
Формат : AC-3
Формат/Информация : Audio Coding 3
Расширение режима : CM (complete main)
Параметр Endianness формата : Big
Идентификатор кодека : A_AC3
Продолжительность : 1 ч. 22 м.
Вид битрейта : Постоянный
Битрейт : 640 Кбит/сек
Каналы : 6 каналов
Расположение каналов : Front: L C R, Side: L R, LFE
Частота : 48,0 КГц
Битовая глубина : 16 бит
Размер потока : 377 Мбайт (5%)
Заголовок : Original
Язык : English
Default : Нет
Forced : Нет

Информация о торренте
Торрент:  Зарегистрирован [08 янв 2017, 11:39] Для скачивания необходимо Зарегистрироваться!



Если Вы уже зарегистрированы, то авторизуйтесь на трекере!
Статус:  
Размер:  7.82 ГБ (8 397 315 399 байт)
Приватный:  Нет (DHT включён)
Хэш:  ff20ec4afe3a43cc2172
12ec5c2d8de611bb8817
Здоровье:  100%
.torrent скачан:  3
Как тут качать  Правила, основные инструкции, FAQ-и



_________________


 Профиль  
 
Показать сообщения за:  Поле сортировки  
Начать новую тему Ответить на тему  [ 1 сообщение ] 


Кто сейчас на трекере

Сейчас этот форум просматривают: нет зарегистрированных пользователей и гости: 3


Вы не можете начинать темы
Вы не можете отвечать на сообщения
Вы не можете редактировать свои сообщения
Вы не можете удалять свои сообщения
Вы не можете добавлять вложения

Найти:


Правообладателям

!ВНИМАНИЕ!
Ресурс не предоставляет электронные версии произведений, а занимается лишь коллекционированием и каталогизацией ссылок, присылаемых и публикуемых на форуме нашими читателями. Если вы являетесь правообладателем какого-либо представленного материала и не желаете чтобы ссылка на него находилась в нашем каталоге, свяжитесь с нами и мы незамедлительно удалим её. Файлы для обмена на трекере предоставлены пользователями сайта, и администрация не несёт ответственности за их содержание. Просьба не заливать файлы, защищенные авторскими правами, а также файлы нелегального содержания!
cron
Вверх страницы
Вниз страницы
ppkBB3cker v.2 © 2008-2011 @ PPK