3d-tracker.ru • Просмотр темы - Летающие машины

Регистрация Имя: Пароль: Запомнить Забыли пароль?



Правила форума





Начать новую тему Ответить на тему  [ 1 сообщение ] 
Статистика раздачи
Размер: 2.93 ГБ | Зарегистрирован: 23 май 2012, 21:40 | .torrent скачан: 14
Сиды: 42 [0 байт/сек]    Личи: 16 [0 байт/сек]
Автор Сообщение
 СообщениеДобавлено: 23 май 2012, 21:40 
Не в сети
Опытный
Аватара пользователя
Зарегистрирован: 14 янв 2012, 02:46
Торренты: 43
Раздал: 7.18 ТБ 
Скачал: 157.95 ГБ 
Ратио: 46.557
Спасибо: 832 / 7
Сообщения: 52
Комментарии: 8

Оригинальное название: The Flying Machine
Страна: Великобритания, Индия, Китай, Польша, Норвегия / Breakthru Filmsm, SMB Investments
Продолжительность: 01:03:00
Дата выхода: 2012
Жанр: Компьютерная анимация, мультфильм, приключения, семейный
Режиссёр: Мартин Клэпп, Дорота Кобиела, Джофф Линдси
В ролях: Джорджи, Ланг Ланг, Анна, Чип-Чип
О фильме: Фильм рассказывает о занятой бизнес-леди Джорджи, которая берёт своих детей на просмотр мультфильма «Волшебное фортепиано», в котором всемирно известный пианист Ланг Ланг исполняет Шопена вживую. Главной героиней мультфильма является Анна — девочка, чей отец был вынужден уехать из Польши на заработки в Лондон. Однажды, Анна и её двоюродный брат Чип-Чип находят сломанное фортепиано, которое магическим образом превращается в летающую машину. На ней, дети отправляются в путешествие по Европе, в надежде найти отца девочки.





MediaInfo: Format : Matroska
Format version : Version 2
File size : 2.93 GiB
Duration : 1h 3mn
Overall bit rate : 6 570 Kbps
Encoded date : UTC 2012-02-20 09:27:13
Writing application : mkvmerge v4.7.0 ('Just Like You Imagined') built on Apr 21 2011 01:13:14
Writing library : libebml v1.2.0 + libmatroska v1.1.0

Video
ID : 1
Format : AVC
Format/Info : Advanced Video Codec
Format profile : High@L4.0
Format settings, CABAC : Yes
Format settings, ReFrames : 4 frames
Codec ID : V_MPEG4/ISO/AVC
Duration : 1h 3mn
Bit rate : 6 184 Kbps
Width : 1 920 pixels
Height : 1 080 pixels
Display aspect ratio : 16:9
Frame rate : 25.000 fps
Color space : YUV
Chroma subsampling : 4:2:0
Bit depth : 8 bits
Scan type : Progressive
Bits/(Pixel*Frame) : 0.119
Stream size : 2.70 GiB (92%)
Writing library : x264 core 115 r1995 c1e60b9
Encoding settings : cabac=1 / ref=3 / deblock=1:0:0 / analyse=0x3:0x113 / me=hex / subme=7 / psy=1 / psy_rd=1.00:0.00 / mixed_ref=1 / me_range=16 / chroma_me=1 / trellis=1 / 8x8dct=1 / cqm=0 / deadzone=21,11 / fast_pskip=1 / chroma_qp_offset=-2 / threads=3 / sliced_threads=0 / nr=0 / decimate=1 / interlaced=0 / bluray_compat=0 / constrained_intra=0 / bframes=3 / b_pyramid=2 / b_adapt=1 / b_bias=0 / direct=1 / weightb=1 / open_gop=0 / weightp=2 / keyint=250 / keyint_min=25 / scenecut=40 / intra_refresh=0 / rc_lookahead=40 / rc=2pass / mbtree=1 / bitrate=6184 / ratetol=1.0 / qcomp=0.60 / qpmin=0 / qpmax=69 / qpstep=4 / cplxblur=20.0 / qblur=0.5 / ip_ratio=1.40 / aq=1:1.00

Audio
ID : 2
Format : AC-3
Format/Info : Audio Coding 3
Mode extension : CM (complete main)
Codec ID : A_AC3
Duration : 1h 3mn
Bit rate mode : Constant
Bit rate : 384 Kbps
Channel(s) : 2 channels
Channel positions : Front: L R
Sampling rate : 48.0 KHz
Bit depth : 16 bits
Compression mode : Lossy
Delay relative to video : 96ms
Stream size : 175 MiB (6%)
Language : English

Перевод: Оригинал
Контейнер: mkv
Формат аудио: AC3
Формат видео: x264
Качество видео: BDrip
Размер видео: 1920×1080
формат 3D: Half SideBySide / Горизонтальная анаморфная стереопара
Информация о торренте
Торрент:  Зарегистрирован [23 май 2012, 21:40] Для скачивания необходимо Зарегистрироваться!



Если Вы уже зарегистрированы, то авторизуйтесь на трекере!
Статус:  
Размер:  2.93 ГБ (3 145 271 210 байт)
Приватный:  Нет (DHT включён)
Хэш:  f70940ad4ea0fa3cef8d
2f1502e45437be65c726
Здоровье:  100%
.torrent скачан:  14
Как тут качать  Правила, основные инструкции, FAQ-и




 Профиль  
 
Показать сообщения за:  Поле сортировки  
Начать новую тему Ответить на тему  [ 1 сообщение ] 


Кто сейчас на трекере

Сейчас этот форум просматривают: нет зарегистрированных пользователей и гости: 4


Вы не можете начинать темы
Вы не можете отвечать на сообщения
Вы не можете редактировать свои сообщения
Вы не можете удалять свои сообщения
Вы не можете добавлять вложения

Найти:


Правообладателям

!ВНИМАНИЕ!
Ресурс не предоставляет электронные версии произведений, а занимается лишь коллекционированием и каталогизацией ссылок, присылаемых и публикуемых на форуме нашими читателями. Если вы являетесь правообладателем какого-либо представленного материала и не желаете чтобы ссылка на него находилась в нашем каталоге, свяжитесь с нами и мы незамедлительно удалим её. Файлы для обмена на трекере предоставлены пользователями сайта, и администрация не несёт ответственности за их содержание. Просьба не заливать файлы, защищенные авторскими правами, а также файлы нелегального содержания!
cron
Вверх страницы
Вниз страницы
ppkBB3cker v.2 © 2008-2011 @ PPK