3d-tracker.ru • Просмотр темы - Планета сокровищ в 3Д / Treasure Planet 3D (2002) [1080p, Zoom Half OU / Вертикальная анаморфная стереопара на весь экран]

Регистрация Имя: Пароль: Запомнить Забыли пароль?



Правила форума





Начать новую тему Ответить на тему  [ Сообщений: 3 ] 
Статистика раздачи
Размер: 6.22 ГБ | Зарегистрирован: 24 мар 2016, 11:12 | .torrent скачан: 42
Сиды: 586 [0 байт/сек]    Личи: 103 [0 байт/сек]
Автор Сообщение
 СообщениеДобавлено: 24 мар 2016, 11:12 
Не в сети
Супермодератор
Аватара пользователя
Зарегистрирован: 15 апр 2014, 21:21
Торренты: 519
Раздал: 35.88 ТБ 
Скачал: 1.83 ТБ 
Ратио: 30.674
Спасибо: 3008 / 212
Сообщения: 685
Комментарии: 311
Откуда: РОССИЯ, ЦФО

Слоган: «They're on the search for gold, but they better watch out for Silver»

Название: Планета сокровищ
Оригинальное название: Treasure Planet
Жанр: мультфильм, фантастика, мелодрама, приключения, семейный

Продолжительность: 01:28:50
Размер: 6,22 Гб
Перевод: Дубрилованный

Режиссеры: Рон Клементс, Джон Маскер
В ролях: Роско Ли Браун, Кори Бертон, Дэйн А. Дэвис, Джозеф Гордон-Левитт, Тони Джей, Остин Мэйджерс, Патрик МакГуэн, Майкл МакШейн, Лори Меткаф, Брайан Мюррей
Роли дублировали: Сергей Воробьев, Роман Бурлаков, Федор Машанов, Борис Улитин, Елена Шульман
Описание: 16-летний Джим Хоукинс отправляется на поиски таинственной Планеты Сокровищ в компании настоящих космических пиратов. Под руководством корабельного кока, киборга Джона Сильвера, он становится умелым «космоплавателем» и не раз спасает космический галеон от самых серьезных опасностей: черных дыр, взрывов сверхновых и космических штормов.
Но главное испытание поджидает юного героя впереди — предательство близкого друга, который вместе с командой матросов пытается обманом захватить все сокровища и скрыться…

Качество: (1080p)
Видео: AVC / 23,976 fps / 1920x1080p / 9561 kbps
Аудио : AC3 / 2 ch / 256 kbps

Формат 3D: Zoom Half OverUnder / Вертикальная анаморфная стереопара на весь экран (16:9)
Порядок ракурсов: левый ракурс-первый
Полное имя : E:\AV\Planeta.sokrovisch.3D.2002.1080p.H-OU.mkv
Формат : Matroska
Версия формата : Version 4 / Version 2
Размер файла : 6,22 Гбайт
Продолжительность : 1 ч. 28 м. 50 с.
Общий поток : 10,0 Мбит/сек
Программа кодирования : mkvmerge v8.3.0 ('Over the Horizon') 64bit
Библиотека кодирования : libebml v1.3.1 + libmatroska v1.4.2

Видео
Идентификатор : 1
Формат : AVC
Формат/Информация : Advanced Video Codec
Профиль формата : High@L4.0
Параметр CABAC формата : Да
Параметр ReFrames формата : 2 кадра
Идентификатор кодека : V_MPEG4/ISO/AVC
Битрейт : 9561 Кбит/сек
Ширина : 1920 пикселей
Высота : 1080 пикселей
Соотношение сторон : 16:9
Режим частоты кадров : Постоянный
Частота кадров : 23,976 кадра/сек
Цветовое пространство : YUV
Субдискретизация насыщенности : 4:2:0
Битовая глубина : 8 бит
Тип развёртки : Прогрессивная
Бит/(Пиксели*Кадры) : 0.192
Размер потока : 5,93 Гбайт (95%)
Заголовок : 1080p.3d.HOU
Язык : English
Default : Да
Forced : Нет
DURATION : 01:28:49.954000000

Аудио
Идентификатор : 2
Формат : AC-3
Формат/Информация : Audio Coding 3
Расширение режима : CM (complete main)
Параметр Endianness формата : Big
Идентификатор кодека : A_AC3
Продолжительность : 1 ч. 28 м.
Вид битрейта : Постоянный
Битрейт : 256 Кбит/сек
Каналы : 2 канала
Расположение каналов : Front: L R
Частота : 48,0 КГц
Битовая глубина : 16 бит
Размер потока : 163 Мбайт (3%)
Заголовок : 2 ch, 256 kb/s
Язык : Russian
Default : Да
Forced : Нет


Информация о торренте
Торрент:  Зарегистрирован [24 мар 2016, 11:12] Для скачивания необходимо Зарегистрироваться!



Если Вы уже зарегистрированы, то авторизуйтесь на трекере!
Статус:  
Размер:  6.22 ГБ (6 673 438 526 байт)
Приватный:  Нет (DHT включён)
Хэш:  86539c3cc9f0825fb39e
e77dec2a97576a91a748
Здоровье:  100%
.torrent скачан:  42
Как тут качать  Правила, основные инструкции, FAQ-и



_________________


 Профиль  
 
 СообщениеДобавлено: 07 дек 2017, 08:14 
Не в сети
Супермодератор
Аватара пользователя
Зарегистрирован: 15 апр 2014, 21:21
Торренты: 519
Раздал: 35.88 ТБ 
Скачал: 1.83 ТБ 
Ратио: 30.674
Спасибо: 3008 / 212
Сообщения: 685
Комментарии: 311
Откуда: РОССИЯ, ЦФО
Раздаю с 7.00. МСК 07/12/17


_________________


 Профиль  
 
 СообщениеДобавлено: 08 дек 2017, 19:43 
Не в сети
заглянувший
Зарегистрирован: 01 мар 2017, 08:34
Торренты: 0
Раздал: 990.66 ГБ 
Скачал: 74.82 ГБ 
Ратио: 13.241
Спасибо: 0 / 22
Сообщения: 5
Комментарии: 6
Спасибо за мультфильм!!!!!


 Профиль  
 
Показать сообщения за:  Поле сортировки  
Начать новую тему Ответить на тему  [ Сообщений: 3 ] 


Кто сейчас на трекере

Сейчас этот форум просматривают: нет зарегистрированных пользователей и гости: 2


Вы не можете начинать темы
Вы не можете отвечать на сообщения
Вы не можете редактировать свои сообщения
Вы не можете удалять свои сообщения
Вы не можете добавлять вложения

Найти:


Правообладателям

!ВНИМАНИЕ!
Ресурс не предоставляет электронные версии произведений, а занимается лишь коллекционированием и каталогизацией ссылок, присылаемых и публикуемых на форуме нашими читателями. Если вы являетесь правообладателем какого-либо представленного материала и не желаете чтобы ссылка на него находилась в нашем каталоге, свяжитесь с нами и мы незамедлительно удалим её. Файлы для обмена на трекере предоставлены пользователями сайта, и администрация не несёт ответственности за их содержание. Просьба не заливать файлы, защищенные авторскими правами, а также файлы нелегального содержания!
cron
Вверх страницы
Вниз страницы
ppkBB3cker v.2 © 2008-2011 @ PPK