3d-tracker.ru • Просмотр темы - Кунг-фу Панда 3 в 3Д / Kung Fu Panda 3 3D (2016) [1080p, Zoom Half OverUnder / Вертикальная анаморфная стереопара на весь экран]

Регистрация Имя: Пароль: Запомнить Забыли пароль?



Правила форума





Начать новую тему Ответить на тему  [ 1 сообщение ] 
Статистика раздачи
Размер: 4.96 ГБ | Зарегистрирован: 28 июн 2016, 18:30 | .torrent скачан: 19
Сиды: 7 [0 байт/сек]    Личи: 2 [0 байт/сек]
Автор Сообщение
 СообщениеДобавлено: 28 июн 2016, 18:30 
Не в сети
Супермодератор
Аватара пользователя
Зарегистрирован: 15 апр 2014, 21:21
Торренты: 411
Раздал: 29.95 ТБ 
Скачал: 1.83 ТБ 
Ратио: 27.440
Спасибо: 2260 / 146
Сообщения: 563
Комментарии: 250
Откуда: РОССИЯ, ЦФО

Название: Кунг-фу Панда 3
Оригинальное название: Kung Fu Panda 3
Год выпуска: 2016
Жанр: Мультфильм, полнометражный, боевик, комедия, приключения, семейный
Выпущено: Китай, США, China Film Co., DreamWorks Animation, Oriental DreamWorks

Режиссер: Алессандро Карлони, Дженнифер Ю
В ролях: Джек Блэк, Брайан Крэнстон, Дастин Хоффман, Анджелина Джоли, Дж.К. Симмонс, Джеки Чан, Сет Роген, Люси Лью, Дэвид Кросс, Кейт Хадсон, Джеймс Хонг, Рэндолл Дак Ким, Стил Гэнон, Лайам Найт, Уэйн Найт, Эл Рокер, Уилли Гайст, Фред Татаскьор, Пакс Джоли-Питт, Майк Митчелл
О фильме: Однажды, в далеком-далеком Китае... В Долину Мира приходит настоящий отец панды По, Ли Шань. Семья воссоединяется и отправляется в тайную деревню панд, где По предстоит познать свое прошлое, проникнуть в будущее и открыть в себе третий глаз. Но темная сторона силы не дремлет - злобный энергетический вампир Кай, вырвавшийся из обители духов, бродит по Китаю и превращает мастеров кунг-фу в нефритовые брелки для ключей. Грядет великая битва, где должен остаться только один!

Качество: BDRip (1080p) by SOLdAt
Видео: MPEG-4 AVC, 7935 Кбит/с, 1920x1080
Аудио: Русский АС3, 6 ch, 448 Кбит/с
Размер: 4.96 ГБ
Продолжительность: 01:23:01
Перевод: Дублированный (Itunes)

Формат 3D: Zoom Half OverUnder / Вертикальная анаморфная стереопара (16:9)
Порядок ракурсов: Верхний-первый
Полное имя : F:\A&V\Kung.Fu.Panda.lll.3D.2016.Zoom.HOU.mkv
Формат : Matroska
Версия формата : Version 4 / Version 2
Размер файла : 4,96 Гбайт
Продолжительность : 1 ч. 23 м.
Общий поток : 8553 Кбит/сек
Дата кодирования : UTC 2016-06-28 12:50:52
Программа кодирования : mkvmerge v7.1.0 ('Good Love') 64bit
Библиотека кодирования : libebml v1.3.0 + libmatroska v1.4.1
DURATION : 01:23:01.018000000

Видео
Идентификатор : 1
Формат : AVC
Формат/Информация : Advanced Video Codec
Профиль формата : High@L4.0
Параметр CABAC формата : Да
Параметр ReFrames формата : 2 кадра
Идентификатор кодека : V_MPEG4/ISO/AVC
Продолжительность : 1 ч. 23 м.
Битрейт : 7935 Кбит/сек
Ширина : 1920 пикселей
Высота : 1080 пикселей
Соотношение сторон : 16:9
Режим частоты кадров : Постоянный
Частота кадров : 23,976 кадра/сек
Цветовое пространство : YUV
Субдискретизация насыщенности : 4:2:0
Битовая глубина : 8 бит
Тип развёртки : Прогрессивная
Бит/(Пиксели*Кадры) : 0.160
Размер потока : 4,60 Гбайт (93%)
Заголовок : 1080p, Zoom.HOU
Язык : English
Default : Да
Forced : Нет

Аудио
Идентификатор : 2
Формат : AC-3
Формат/Информация : Audio Coding 3
Расширение режима : CM (complete main)
Параметр Endianness формата : Big
Идентификатор кодека : A_AC3
Продолжительность : 1 ч. 23 м.
Вид битрейта : Постоянный
Битрейт : 448 Кбит/сек
Каналы : 6 каналов
Расположение каналов : Front: L C R, Side: L R, LFE
Частота : 48,0 КГц
Битовая глубина : 16 бит
Размер потока : 266 Мбайт (5%)
Заголовок : 6 ch, 448 kb/s
Язык : Russian
Default : Да
Forced : Нет

Информация о торренте
Торрент:  Зарегистрирован [28 июн 2016, 18:30] Для скачивания необходимо Зарегистрироваться!



Если Вы уже зарегистрированы, то авторизуйтесь на трекере!
Статус:  
Размер:  4.96 ГБ (5 325 223 756 байт)
Приватный:  Нет (DHT включён)
Хэш:  013e8a0c5b20aadd05b1
b1c515e8d238bdb6ebb7
Здоровье:  100%
.torrent скачан:  19
Как тут качать  Правила, основные инструкции, FAQ-и



_________________


 Профиль  
 
Показать сообщения за:  Поле сортировки  
Начать новую тему Ответить на тему  [ 1 сообщение ] 


Кто сейчас на трекере

Сейчас этот форум просматривают: нет зарегистрированных пользователей и гости: 1


Вы не можете начинать темы
Вы не можете отвечать на сообщения
Вы не можете редактировать свои сообщения
Вы не можете удалять свои сообщения
Вы не можете добавлять вложения

Найти:


Правообладателям

!ВНИМАНИЕ!
Ресурс не предоставляет электронные версии произведений, а занимается лишь коллекционированием и каталогизацией ссылок, присылаемых и публикуемых на форуме нашими читателями. Если вы являетесь правообладателем какого-либо представленного материала и не желаете чтобы ссылка на него находилась в нашем каталоге, свяжитесь с нами и мы незамедлительно удалим её. Файлы для обмена на трекере предоставлены пользователями сайта, и администрация не несёт ответственности за их содержание. Просьба не заливать файлы, защищенные авторскими правами, а также файлы нелегального содержания!
cron
Вверх страницы
Вниз страницы
ppkBB3cker v.2 © 2008-2011 @ PPK