3d-tracker.ru • Просмотр темы - Полный расколбас в 3Д / Sausage Party 3D (2016) [BDRip, 1080p, Half Side-by-Side / Горизонтальная анаморфная стереопара]

Регистрация Имя: Пароль: Запомнить Забыли пароль?



Правила форума





Начать новую тему Ответить на тему  [ 1 сообщение ] 
Статистика раздачи
Размер: 6.02 ГБ | Зарегистрирован: 23 окт 2016, 19:03 | .torrent скачан: 5
Сиды: 3 [0 байт/сек]    Личи: 2 [0 байт/сек]
Автор Сообщение
 СообщениеДобавлено: 23 окт 2016, 19:03 
Не в сети
Супермодератор
Аватара пользователя
Зарегистрирован: 15 апр 2014, 21:21
Торренты: 369
Раздал: 28.83 ТБ 
Скачал: 1.83 ТБ 
Ратио: 26.826
Спасибо: 1969 / 112
Сообщения: 520
Комментарии: 233
Откуда: РОССИЯ, ЦФО

Название: Полный расколбас
Оригинальное название: Sausage Party
Год выпуска: 2016
Жанр: Мультфильм, фэнтези, комедия, приключения
Выпущено: США, Annapurna Pictures, Columbia Pictures, Nitrogen Studios Canada, Point Grey Pictures

Режиссер: Грег Тирнан, Конрад Вернон
В ролях: Алистэр Эбелл, Айрис Апатоу, Стефани Бирд, Майкл Сера, Йен Джеймс Корлетт, Майкл Дэйнджерфилд, Брайан Добсон, Майкл Добсон, Джеймс Франко, Билл Хейдер
О фильме: Первая анимационная комедия для взрослых о невероятных приключениях еды из супермаркета. Съедобным друзьям предстоит получить ответ на главный вопрос: есть ли жизнь за стенами супермаркета и что же происходит с продуктами после того, как они попадают к людям домой?
Просмотр фильма в 3D и 2D на Full HD 3DTV & стереоскопик плейере!
Размер: 6.02 ГБ
Продолжительность: 01:20:06
Перевод: Дублированный

Качество: (1080p) by SOLdAt
Видео: AVC, 10300 Кбит/с, 1920x1080, 24,000 fps
Аудио: Русский AC3, 2 ch, 256 Кбит/с

Формат 3D: Half Side-by-Side / Горизонтальная анаморфная стереопара (16:9)
Порядок ракурсов: левый ракурс - первый

Полное имя : E:\AV\Sosiski.3D.2O16.1080p.HSBS.mkv
Формат : Matroska
Версия формата : Version 4 / Version 2
Размер файла : 6,02 Гбайт
Продолжительность : 1 ч. 20 м.
Общий поток : 10,8 Мбит/сек
Название фильма : by_SOLdAt
Дата кодирования : UTC 2016-10-23 12:40:01
Программа кодирования : mkvmerge v8.3.0 ('Over the Horizon') 64bit
Библиотека кодирования : libebml v1.3.1 + libmatroska v1.4.2
DURATION : 01:20:05.981000000
Видео
Идентификатор : 1
Формат : AVC
Формат/Информация : Advanced Video Codec
Профиль формата : High@L4.0
Параметр CABAC формата : Да
Параметр ReFrames формата : 2 кадра
Параметр GOP формата : M=3, N=18
Идентификатор кодека : V_MPEG4/ISO/AVC
Продолжительность : 1 ч. 20 м.
Битрейт : 10,3 Мбит/сек
Ширина : 1920 пикселей
Высота : 1080 пикселей
Соотношение сторон : 16:9
Режим частоты кадров : Постоянный
Частота кадров : 24,000 кадра/сек
Цветовое пространство : YUV
Субдискретизация насыщенности : 4:2:0
Битовая глубина : 8 бит
Тип развёртки : Прогрессивная
Бит/(Пиксели*Кадры) : 0.207
Размер потока : 5,75 Гбайт (96%)
Заголовок : 3D-1080p-HSBS
Язык : English
Default : Да
Forced : Нет
Аудио
Идентификатор : 2
Формат : AC-3
Формат/Информация : Audio Coding 3
Расширение режима : CM (complete main)
Параметр Endianness формата : Big
Идентификатор кодека : A_AC3
Продолжительность : 1 ч. 20 м.
Вид битрейта : Постоянный
Битрейт : 256 Кбит/сек
Каналы : 2 канала
Расположение каналов : Front: L R
Частота : 48,0 КГц
Битовая глубина : 16 бит
Размер потока : 147 Мбайт (2%)
Заголовок : 2 ch, 256 kb/s
Язык : Russian
Default : Да
Forced : Нет

Информация о торренте
Торрент:  Зарегистрирован [23 окт 2016, 19:03] Для скачивания необходимо Зарегистрироваться!



Если Вы уже зарегистрированы, то авторизуйтесь на трекере!
Статус:  
Размер:  6.02 ГБ (6 461 645 282 байт)
Приватный:  Нет (DHT включён)
Хэш:  e215a3ed279d5b5b1aa0
9489629600f460b5e71e
Здоровье:  100%
.torrent скачан:  5
Как тут качать  Правила, основные инструкции, FAQ-и



_________________


 Профиль  
 
Показать сообщения за:  Поле сортировки  
Начать новую тему Ответить на тему  [ 1 сообщение ] 


Кто сейчас на трекере

Сейчас этот форум просматривают: нет зарегистрированных пользователей и гости: 1


Вы не можете начинать темы
Вы не можете отвечать на сообщения
Вы не можете редактировать свои сообщения
Вы не можете удалять свои сообщения
Вы не можете добавлять вложения

Найти:


Правообладателям

!ВНИМАНИЕ!
Ресурс не предоставляет электронные версии произведений, а занимается лишь коллекционированием и каталогизацией ссылок, присылаемых и публикуемых на форуме нашими читателями. Если вы являетесь правообладателем какого-либо представленного материала и не желаете чтобы ссылка на него находилась в нашем каталоге, свяжитесь с нами и мы незамедлительно удалим её. Файлы для обмена на трекере предоставлены пользователями сайта, и администрация не несёт ответственности за их содержание. Просьба не заливать файлы, защищенные авторскими правами, а также файлы нелегального содержания!
cron
Вверх страницы
Вниз страницы
ppkBB3cker v.2 © 2008-2011 @ PPK