3d-tracker.ru • Просмотр темы - Принцесса-лягушка в 3Д / Frog Kingdom 3D (2013) [BDRip, 1080p, Half OverUnder / Вертикальная анаморфная стереопара на весь экран]

Регистрация Имя: Пароль: Запомнить Забыли пароль?



Правила форума





Начать новую тему Ответить на тему  [ 1 сообщение ] 
Статистика раздачи
Размер: 7.77 ГБ | Зарегистрирован: 17 апр 2017, 15:25 | .torrent скачан: 8
Сиды: 3 [0 байт/сек]    Личи: 2 [0 байт/сек]
Автор Сообщение
 СообщениеДобавлено: 17 апр 2017, 15:25 
Не в сети
Супермодератор
Аватара пользователя
Зарегистрирован: 15 апр 2014, 21:21
Торренты: 519
Раздал: 35.88 ТБ 
Скачал: 1.83 ТБ 
Ратио: 30.674
Спасибо: 3008 / 212
Сообщения: 685
Комментарии: 311
Откуда: РОССИЯ, ЦФО

Жанр: комедия, приключения
Производство: Grindstone Entertainment Group, Simka Entertainment
Страна: США, Китай

Режиссер: Нельсон Шин, Мелани Симка
Роли исполняли: Белла Торн, Грегг Салкин, Даллас Ловато, Лил Ромео, Брэндон Хадсон, Саванна Хадсон, Нэйтан Барнатт, Тэлон Рейд, Дрейк Белл, Кэмерон Даллас
Роли дублировали: Ани Лорак, Елена Солодилина, Александр Новиков-Янгинов, Антон Савенков, Александр Белый
Описание: В королевстве лягушек переполох, ведь совсем скоро назначены Олимпийские игры, каких страна еще не видывала! На этот раз король пообещал выдать свою красавицу дочь за их победителя. Но пока участники съезжались с разных концов страны, принцесса сбежала из дворца. Переодевшись в мужскую одежду, она отправляется жить среди простого люда, где встречает своих новых друзей: уличного торговца Рэйна и его приятеля малыша Кена. Как-то раз, спасаясь от разгневанного покупателя, Рэйн, а вместе с ним и переодетая принцесса, невольно становятся участниками предстоящего соревнования. А пока они готовятся к турниру, малыш Кен обнаруживает тайный заговор среди участников, который грозит большой бедой всему королевству!

Качество: BDRip (1080p)
Формат: MKV
Видео: AVC/H.264, 1920x1080, ~11,2 Мбит/сек
Аудио 1: AC3 5.1 640 Кбит/сек - Русский
Аудио 2: AC3 5.1 640 Кбит/сек - Английский
Субтитры: Отсутствуют

Формат 3D: Half OverUnder / Вертикальная анаморфная стереопара (16:9)
Порядок ракурсов: Верхний-первый
Полное имя : F:\Frog_Kingdom_3D.mkv
Формат : Matroska
Версия формата : Version 2
Размер файла : 7,77 Гбайт
Продолжительность : 1 ч. 27 м.
Общий поток : 12,8 Мбит/сек
Название фильма : Frog_Kingdom_3D_Zoom_HOU
Дата кодирования : UTC 2017-04-16
Программа кодирования : mkvmerge v7.1.0
Библиотека кодирования : libebml v1.2.3 + libmatroska v1.3.0

Видео
Идентификатор : 1
Формат : AVC
Формат/Информация : Advanced Video Codec
Профиль формата : High@L4.1
Параметр CABAC формата : Да
Параметр ReFrames формата : 4 кадра
Идентификатор кодека : V_MPEG4/ISO/AVC
Продолжительность : 1 ч. 27 м.
Битрейт : 11,2 Мбит/сек
Ширина : 1920 пикселей
Высота : 1080 пикселей
Соотношение сторон : 16:9
Режим частоты кадров : Постоянный
Частота кадров : 23,976 кадра/сек
Цветовое пространство : YUV
Субдискретизация насыщенности : 4:2:0
Битовая глубина : 8 бит
Тип развёртки : Прогрессивная
Бит/(Пиксели*Кадры) : 0.226
Размер потока : 6,83 Гбайт (88%)
Библиотека кодирования : x264 core 128 r2341О
Default : Да
Forced : Нет

Аудио #1
Идентификатор : 2
Формат : AC-3
Формат/Информация : Audio Coding 3
Расширение режима : CM (complete main)
Параметр Endianness формата : Big
Идентификатор кодека : A_AC3
Продолжительность : 1 ч. 27 м.
Вид битрейта : Постоянный
Битрейт : 640 Кбит/сек
Каналы : 6 каналов
Расположение каналов : Front: L C R, Side: L R, LFE
Частота : 48,0 КГц
Битовая глубина : 16 бит
Размер потока : 399 Мбайт (5%)
Заголовок : Дубляж
Язык : Russian
Default : Да
Forced : Нет

Аудио #2
Идентификатор : 3
Формат : AC-3
Формат/Информация : Audio Coding 3
Расширение режима : CM (complete main)
Параметр Endianness формата : Big
Идентификатор кодека : A_AC3
Продолжительность : 1 ч. 27 м.
Вид битрейта : Постоянный
Битрейт : 640 Кбит/сек
Каналы : 6 каналов
Расположение каналов : Front: L C R, Side: L R, LFE
Частота : 48,0 КГц
Битовая глубина : 16 бит
Размер потока : 399 Мбайт (5%)
Заголовок : Original
Язык : English
Default : Нет
Forced : Нет

Информация о торренте
Торрент:  Зарегистрирован [17 апр 2017, 15:25] Для скачивания необходимо Зарегистрироваться!



Если Вы уже зарегистрированы, то авторизуйтесь на трекере!
Статус:  
Размер:  7.77 ГБ (8 338 532 203 байт)
Приватный:  Нет (DHT включён)
Хэш:  1b35fdf54b4f3ef91857
7b4b78fc1e50c71a4eb0
Здоровье:  100%
.torrent скачан:  8
Как тут качать  Правила, основные инструкции, FAQ-и



_________________


 Профиль  
 
Показать сообщения за:  Поле сортировки  
Начать новую тему Ответить на тему  [ 1 сообщение ] 


Кто сейчас на трекере

Сейчас этот форум просматривают: нет зарегистрированных пользователей и гости: 1


Вы не можете начинать темы
Вы не можете отвечать на сообщения
Вы не можете редактировать свои сообщения
Вы не можете удалять свои сообщения
Вы не можете добавлять вложения

Найти:


Правообладателям

!ВНИМАНИЕ!
Ресурс не предоставляет электронные версии произведений, а занимается лишь коллекционированием и каталогизацией ссылок, присылаемых и публикуемых на форуме нашими читателями. Если вы являетесь правообладателем какого-либо представленного материала и не желаете чтобы ссылка на него находилась в нашем каталоге, свяжитесь с нами и мы незамедлительно удалим её. Файлы для обмена на трекере предоставлены пользователями сайта, и администрация не несёт ответственности за их содержание. Просьба не заливать файлы, защищенные авторскими правами, а также файлы нелегального содержания!
cron
Вверх страницы
Вниз страницы
ppkBB3cker v.2 © 2008-2011 @ PPK