3d-tracker.ru • Просмотр темы - Урфин Джюс и его деревянные солдаты / 3D (2017) [BDRip, 1080p, Zoom Half OverUnder / Вертикальная анаморфная стереопара на весь экран]

Регистрация Имя: Пароль: Запомнить Забыли пароль?



Правила форума





Начать новую тему Ответить на тему  [ 1 сообщение ] 
Статистика раздачи
Размер: 1.7 ГБ | Зарегистрирован: 15 окт 2017, 15:09 | .torrent скачан: 14
Сиды: 2 [0 байт/сек]    Личи: 1 [0 байт/сек]
Автор Сообщение
 СообщениеДобавлено: 15 окт 2017, 15:09 
Не в сети
Модератор
Аватара пользователя
Зарегистрирован: 30 авг 2016, 14:54
Торренты: 122
Раздал: 511.48 ГБ 
Скачал: 32.89 ГБ 
Ратио: 15.550
Спасибо: 743 / 348
Сообщения: 133
Комментарии: 24


Название: Урфин Джюс и его деревянные солдаты
Год выпуска: 2017
Жанр: Мультфильм, приключения, семейный

Режиссер: Владимир Торопчин, Федор Дмитриев, Дарина Шмидт
В ролях: Константин Хабенский, Екатерина Гороховская, Сергей Шнуров, Дмитрий Дюжев, Андрей Лёвин, Юлия Рудина, Сергей Дьячков, Валерий Соловьёв, Валерий Кухарешин, Александр Боярский
О фильме: Коварный и злобный Урфин Джюс решил стать повелителем Волшебной страны, захватить Изумрудный город при помощи своих солдат-дуболомов и переименовать его в Урфинград. Он уже готовится праздновать победу, но в дело вмешивается самая обычная девочка Элли, которая оказалась в Волшебной стране в самое подходящее время. Ей очень нужно вернуться домой, но прежде она должна помочь своим друзьям Страшиле, Дровосеку и Льву победить Урфина и его армию.

Страна: Россия
Студия: Кинокомпания СТВ, Анимационная студия Мельница
Продолжительность: 01:23:38
Язык: Русский | iTunes

Качество: BDRip (1080p)
Видео: 2500 Кбит/сек, 1920х1080, 25,000 кадров/сек
Аудио: 48.0 kHz, AC3 6 ch, 384 kbps
Размер: 1,70 Гб

Формат 3D: Zoom Half OverUnder / Вертикальная анаморфная стереопара (16:9)
Порядок ракурсов: Левый-первый
Полное имя : E:\AV\Urfin.Juys.i.ego.derevyannyie.Soldati.3d.2017.mkv
Формат : Matroska
Версия формата : Version 4 / Version 2
Размер файла : 1,70 Гбайт
Дата кодирования : UTC 2017-10-15 09:38:59
Программа кодирования : mkvmerge v7.1.0 ('Good Love') 64bit
Библиотека кодирования : libebml v1.3.0 + libmatroska v1.4.1
Attachements : Cover.JPG
DURATION : 01:23:37.560000000

Видео
Идентификатор : 1
Формат : AVC
Формат/Информация : Advanced Video Codec
Профиль формата : High@L4.0
Параметр CABAC формата : Да
Параметр ReFrames формата : 4 кадра
Идентификатор кодека : V_MPEG4/ISO/AVC
Битрейт : 2500 Кбит/сек
Ширина : 1920 пикселей
Высота : 1080 пикселей
Соотношение сторон : 16:9
Режим частоты кадров : Постоянный
Частота кадров : 25,000 кадров/сек
Цветовое пространство : YUV
Субдискретизация насыщенности : 4:2:0
Битовая глубина : 8 бит
Тип развёртки : Прогрессивная
Бит/(Пиксели*Кадры) : 0.048
Размер потока : 1,44 Гбайт (85%)
Библиотека кодирования : x264 core 134 rmny
Язык : English
Default : Да
Forced : Нет

Аудио
Идентификатор : 2
Формат : AC-3
Формат/Информация : Audio Coding 3
Расширение режима : CM (complete main)
Параметр Endianness формата : Big
Идентификатор кодека : A_AC3
Вид битрейта : Постоянный
Битрейт : 384 Кбит/сек
Каналы : 6 каналов
Расположение каналов : Front: L C R, Side: L R, LFE
Частота : 48,0 КГц
Битовая глубина : 16 бит
Размер потока : 230 Мбайт (13%)
Язык : Russian
Default : Да
Forced : Нет

Информация о торренте
Торрент:  Зарегистрирован [15 окт 2017, 15:09] Для скачивания необходимо Зарегистрироваться!



Если Вы уже зарегистрированы, то авторизуйтесь на трекере!
Статус:  
Размер:  1.7 ГБ (1 820 581 348 байт)
Приватный:  Нет (DHT включён)
Хэш:  26aac0bd665ca120837a
38a6b412900cad7d79f9
Здоровье:  100%
.torrent скачан:  14
Как тут качать  Правила, основные инструкции, FAQ-и



_________________


 Профиль  
 
Показать сообщения за:  Поле сортировки  
Начать новую тему Ответить на тему  [ 1 сообщение ] 


Кто сейчас на трекере

Сейчас этот форум просматривают: нет зарегистрированных пользователей и гости: 1


Вы не можете начинать темы
Вы не можете отвечать на сообщения
Вы не можете редактировать свои сообщения
Вы не можете удалять свои сообщения
Вы не можете добавлять вложения

Найти:


Правообладателям

!ВНИМАНИЕ!
Ресурс не предоставляет электронные версии произведений, а занимается лишь коллекционированием и каталогизацией ссылок, присылаемых и публикуемых на форуме нашими читателями. Если вы являетесь правообладателем какого-либо представленного материала и не желаете чтобы ссылка на него находилась в нашем каталоге, свяжитесь с нами и мы незамедлительно удалим её. Файлы для обмена на трекере предоставлены пользователями сайта, и администрация не несёт ответственности за их содержание. Просьба не заливать файлы, защищенные авторскими правами, а также файлы нелегального содержания!
cron
Вверх страницы
Вниз страницы
ppkBB3cker v.2 © 2008-2011 @ PPK