3d-tracker.ru • Просмотр темы - Бременские музыканты / 3D (1969-1973) [BDRip, 1080p, Half Side-By-Side / Горизонтальная анаморфная стереопара на весь экран]

Регистрация Имя: Пароль: Запомнить Забыли пароль?



Правила форума





Начать новую тему Ответить на тему  [ 1 сообщение ] 
Статистика раздачи
Размер: 807.03 МБ | Зарегистрирован: 17 окт 2017, 19:02 | .torrent скачан: 7
Сиды: 0 [0 байт/сек]    Личи: 3 [0 байт/сек]
Автор Сообщение
 СообщениеДобавлено: 17 окт 2017, 19:02 
Не в сети
Супермодератор
Аватара пользователя
Зарегистрирован: 15 апр 2014, 21:21
Торренты: 519
Раздал: 35.88 ТБ 
Скачал: 1.83 ТБ 
Ратио: 30.674
Спасибо: 3008 / 212
Сообщения: 685
Комментарии: 311
Откуда: РОССИЯ, ЦФО

Название: Бременские музыканты
Год выхода: 1969, 1973
Жанр: мультфильм, короткометражка

Режиссер: Инесса Ковалевская, Василий Ливанов
В ролях: Олег Анофриев, Геннадий Гладков, Анатолий Горохов, Муслим Магомаев, Эльмира Жерздева
О фильме: Музыкальная фантазия, любимая не одним поколением зрителей, о необыкновенных, очень опасных и веселых приключениях бременских музыкантов: Трубадура, кота, собаки, петуха и осла. Музыканты путешествуют по Германии времен братьев Гримм и поют вполне современные песни. Время от времени совершают подвиги. Все было хорошо, но во время одного циркового представления приглянулась нашему герою принцесса…

Выпущено: Союзмультфильм
Продолжительность: 2 мульта - 00:39:06
Перевод: Оригинал (лицензия)

Качество: BDRip (1080p)
Видео: 1920x1080, 23,976 fps, AVC, 2500 Кбит/сек
Аудио: 48.0 kHz, AC3, 6 ch, 384 kbps
Размер: 807 Мб

Формат 3D: Half SideBySide / Горизонтальная анаморфная стереопара (16:9)
Порядок ракурсов: Левый-первый
Полное имя : E:\A&V\Bremenskie.muzykanty(1969-1973).3d.mkv
Формат : Matroska
Версия формата : Version 4 / Version 2
Размер файла : 807 Мбайт
Название фильма : from Unter59
Дата кодирования : UTC 2017-10-17 13:32:10
Программа кодирования : mkvmerge v7.1.0
Библиотека кодирования : libebml v1.3.0 + libmatroska v1.4.1
Attachements : Cover.JPG
DURATION : 00:39:06.392000000

Видео
Идентификатор : 1
Формат : AVC
Формат/Информация : Advanced Video Codec
Профиль формата : High@L4.0
Параметр CABAC формата : Да
Параметр ReFrames формата : 4 кадра
Идентификатор кодека : V_MPEG4/ISO/AVC
Продолжительность : 39 м.
Битрейт : 2500 Кбит/сек
Ширина : 1920 пикселей
Высота : 1080 пикселей
Соотношение сторон : 16:9
Режим частоты кадров : Постоянный
Частота кадров : 23,976 кадра/сек
Цветовое пространство : YUV
Субдискретизация насыщенности : 4:2:0
Битовая глубина : 8 бит
Тип развёртки : Прогрессивная
Бит/(Пиксели*Кадры) : 0.050
Размер потока : 684 Мбайт (85%)
Язык : English
Default : Да
Forced : Нет

Аудио
Идентификатор : 2
Формат : AC-3
Формат/Информация : Audio Coding 3
Расширение режима : CM (complete main)
Параметр Endianness формата : Big
Идентификатор кодека : A_AC3
Вид битрейта : Постоянный
Битрейт : 384 Кбит/сек
Каналы : 6 каналов
Расположение каналов : Front: L C R, Side: L R, LFE
Частота : 48,0 КГц
Битовая глубина : 16 бит
Размер потока : 107 Мбайт (13%)
Язык : Russian
Default : Да
Forced : Нет

Информация о торренте
Торрент:  Зарегистрирован [17 окт 2017, 19:02] Для скачивания необходимо Зарегистрироваться!



Если Вы уже зарегистрированы, то авторизуйтесь на трекере!
Статус:  
Размер:  807.03 МБ (846 231 629 байт)
Приватный:  Нет (DHT включён)
Хэш:  51eb01716e12fbe78761
36d1bc7585bc0dfc7e24
Здоровье:  ???%
.torrent скачан:  7
Как тут качать  Правила, основные инструкции, FAQ-и



_________________


 Профиль  
 
Показать сообщения за:  Поле сортировки  
Начать новую тему Ответить на тему  [ 1 сообщение ] 


Кто сейчас на трекере

Сейчас этот форум просматривают: нет зарегистрированных пользователей и гости: 2


Вы не можете начинать темы
Вы не можете отвечать на сообщения
Вы не можете редактировать свои сообщения
Вы не можете удалять свои сообщения
Вы не можете добавлять вложения

Найти:


Правообладателям

!ВНИМАНИЕ!
Ресурс не предоставляет электронные версии произведений, а занимается лишь коллекционированием и каталогизацией ссылок, присылаемых и публикуемых на форуме нашими читателями. Если вы являетесь правообладателем какого-либо представленного материала и не желаете чтобы ссылка на него находилась в нашем каталоге, свяжитесь с нами и мы незамедлительно удалим её. Файлы для обмена на трекере предоставлены пользователями сайта, и администрация не несёт ответственности за их содержание. Просьба не заливать файлы, защищенные авторскими правами, а также файлы нелегального содержания!
cron
Вверх страницы
Вниз страницы
ppkBB3cker v.2 © 2008-2011 @ PPK