3d-tracker.ru • Просмотр темы - Космический пират Харлок в 3Д / Space Pirate Captain Harlock 3D (2013) [BDRip, 1080p, Zoom Half OverUnder / Вертикальная анаморфная стереопара на весь экран]

Регистрация Имя: Пароль: Запомнить Забыли пароль?



Правила форума





Начать новую тему Ответить на тему  [ 1 сообщение ] 
Статистика раздачи
Размер: 4.8 ГБ | Зарегистрирован: 29 дек 2017, 17:36 | .torrent скачан: 13
Сиды: 4 [0 байт/сек]    Личи: 1 [0 байт/сек]
Автор Сообщение
 СообщениеДобавлено: 29 дек 2017, 17:36 
Не в сети
Супермодератор
Аватара пользователя
Зарегистрирован: 15 апр 2014, 21:21
Торренты: 519
Раздал: 35.86 ТБ 
Скачал: 1.83 ТБ 
Ратио: 30.663
Спасибо: 3008 / 212
Сообщения: 685
Комментарии: 311
Откуда: РОССИЯ, ЦФО



Год выпуска: 2013
Страна: Япония, США, Франция (Toei Animation, Marza Animation Planet)
Жанр: Мультфильм, Фантастика, Боевик, Приключения
Продолжительность: 01:47:20

Озвучкa: Профессиональная дублированная
Режиссер: Синдзи Арамаки / Shinji Aramaki
Роли озвучивали / дублировали: Шун Огури / Александр Гаврилин (Captain Harlock), Аои Ю / Екатерина Семенова (Miime), Аяно Фукуда (Tori-san), Арата Фурута (Yattaran), Киёси Кобаяси (Roujin), Харума Миура / Александр Гаврилин (Yama), Морикава Тосиюки / Даниил Эльдаров (Isora), Тикао Оцука (Soukan), Маая Сакамото / Евгения Ваган(Nami), Миюки Савасиро (Kei)
Описание: В будущем человечество обнаружило способ путешествовать быстрее света и построило колонии на тысячах планет. Но даже ресурсы Вселенной начинают сокращаться, поэтому пятьсот миллиардов людей начинают долгое путешествие обратно домой. Желание населить Землю перерастает в войну, пока универсальное правительство коалиции не объявляет Землю священной, и, таким образом, недоступной. В этой умирающей Вселенной космический пират, Капитан Харлок, преследующий таинственные цели, путешествует на своем очень мощном флагмане Аркадии. Молодой Яма, брат командующего флотом Ездры, проникает в экипаж Аркадии, чтобы раскрыть цели пиратского капитана.

Качество: BDRip (1080p)
Видео: AVC / 1920х1080 / 23,976 fps / 6078 kbps
Аудио: Русский / AC3 / 48 KHz / 2 ch / 192 Kbps
Размер: 4,80 Гб

Формат 3D: Half OverUnder / Вертикальная анаморфная стереопара (16:9)
Порядок ракурсов: левый ракурс - первый
Полное имя : E:\AV\Space.Pirate.Captain.Harlock.2013.3D.mkv
Формат : Matroska
Версия формата : Version 4 / Version 2
Размер файла : 4,80 Гбайт
Название фильма : Космический пират капитан Харлок в 3Д / Space Pirate Captain Harlock 3D (2013)
Дата кодирования : UTC 2017-12-29 10:52:25
Программа кодирования : mkvmerge v7.1.0 ('Good Love') 64bit
Библиотека кодирования : libebml v1.3.0 + libmatroska v1.4.1
Attachements : Cover.JPG
DURATION : 01:47:20.096000000

Видео
Идентификатор : 1
Формат : AVC
Формат/Информация : Advanced Video Codec
Профиль формата : High@L4.0
Параметр CABAC формата : Да
Параметр ReFrames формата : 2 кадра
Идентификатор кодека : V_MPEG4/ISO/AVC
Битрейт : 6078 Кбит/сек
Ширина : 1920 пикселей
Высота : 1080 пикселей
Соотношение сторон : 16:9
Режим частоты кадров : Постоянный
Частота кадров : 23,976 кадра/сек
Цветовое пространство : YUV
Субдискретизация насыщенности : 4:2:0
Битовая глубина : 8 бит
Тип развёртки : Прогрессивная
Бит/(Пиксели*Кадры) : 0.122
Размер потока : 4,56 Гбайт (95%)
Default : Да
Forced : Нет

Аудио
Идентификатор : 2
Формат : AC-3
Формат/Информация : Audio Coding 3
Расширение режима : CM (complete main)
Параметр Endianness формата : Big
Идентификатор кодека : A_AC3
Вид битрейта : Постоянный
Битрейт : 192 Кбит/сек
Каналы : 2 канала
Расположение каналов : Front: L R
Частота : 48,0 КГц
Битовая глубина : 16 бит
Размер потока : 147 Мбайт (3%)
Язык : Russian
Default : Да
Forced : Нет

Информация о торренте
Торрент:  Зарегистрирован [29 дек 2017, 17:36] Для скачивания необходимо Зарегистрироваться!



Если Вы уже зарегистрированы, то авторизуйтесь на трекере!
Статус:  
Размер:  4.8 ГБ (5 150 230 951 байт)
Приватный:  Нет (DHT включён)
Хэш:  a00c99006ce2fcc2d244
f6a6bc4a98c09f48c5b5
Здоровье:  100%
.torrent скачан:  13
Как тут качать  Правила, основные инструкции, FAQ-и



_________________


 Профиль  
 
Показать сообщения за:  Поле сортировки  
Начать новую тему Ответить на тему  [ 1 сообщение ] 


Кто сейчас на трекере

Сейчас этот форум просматривают: Bing [Bot] и гости: 1


Вы не можете начинать темы
Вы не можете отвечать на сообщения
Вы не можете редактировать свои сообщения
Вы не можете удалять свои сообщения
Вы не можете добавлять вложения

Найти:


Правообладателям

!ВНИМАНИЕ!
Ресурс не предоставляет электронные версии произведений, а занимается лишь коллекционированием и каталогизацией ссылок, присылаемых и публикуемых на форуме нашими читателями. Если вы являетесь правообладателем какого-либо представленного материала и не желаете чтобы ссылка на него находилась в нашем каталоге, свяжитесь с нами и мы незамедлительно удалим её. Файлы для обмена на трекере предоставлены пользователями сайта, и администрация не несёт ответственности за их содержание. Просьба не заливать файлы, защищенные авторскими правами, а также файлы нелегального содержания!
cron
Вверх страницы
Вниз страницы
ppkBB3cker v.2 © 2008-2011 @ PPK