3d-tracker.ru • Просмотр темы - Кот в сапогах 3D

Регистрация Имя: Пароль: Запомнить Забыли пароль?



Правила форума





Начать новую тему Ответить на тему  [ Сообщений: 2 ] 
Статистика раздачи
Размер: 4.9 ГБ | Зарегистрирован: 17 фев 2012, 00:39 | .torrent скачан: 13
Сиды: 4 [0 байт/сек]    Личи: 6 [0 байт/сек]
Автор Сообщение
 СообщениеДобавлено: 13 фев 2012, 14:15 
Не в сети
заглянувший
Аватара пользователя
Зарегистрирован: 18 янв 2012, 23:20
Торренты: 6
Раздал: 168.14 ГБ 
Скачал: 0 байт 
Ратио: None.
Спасибо: 126 / 0
Сообщения: 8
Комментарии: 2

Оригинальное название: Puss in Boots 3D
Страна: США
Продолжительность: 01:30:14
Дата выхода: 2011
Жанр: мультфильм, фэнтези, комедия, приключения
Режиссёр: Крис Миллер
В ролях: Антонио Бандерас, Сальма Хайек, Зак Галифианакис, Билли Боб Торнтон, Эми Седарис, Констанс Мари, Гильермо дель Торо, Рич Дитль, Райан Крего, Том Вилер
О фильме: Мечи пересекутся и сердца будут разбиты в приключениях с одним из самых любимых персонажей из Шрэка — котом в сапогах. Это удалая поездка ранних лет кота в сапогах, когда он объединяется с умным Шалтай-Болтаем и сообразительной Китти, чтобы украсть знаменитого Гуся, несущего золотые яйца.



MediaInfo: D:\скачка\torrent\PussInBoots(3D)3d-tracker.ru .mkv
General
Unique ID : 157000327941455374562131319512573915154 (0x761D29CD1E474880E0798D210953B012)
Complete name : D:\скачка\torrent\PussInBoots(3D)3d-tracker.ru .mkv
Format : Matroska
File size : 4.90 GiB
Duration : 1h 30mn
Overall bit rate : 7 778 Kbps
Movie name : Avidemux
Writing application : Lavf52.108.0
Writing library : Lavf52.108.0
AUTHOR : Avidemux
Video #1
ID : 1
Format : AVC
Format/Info : Advanced Video Codec
Format profile : High@L4.1
Format settings, CABAC : Yes
Format settings, ReFrames : 4 frames
Codec ID : V_MPEG4/ISO/AVC
Duration : 1h 30mn
Bit rate : 7 175 Kbps
Width : 1 920 pixels
Height : 1 080 pixels
Display aspect ratio : 16:9
Frame rate : 23.976 fps
Color space : YUV
Chroma subsampling : 4:2:0
Bit depth : 8 bits
Scan type : Progressive
Bits/(Pixel*Frame) : 0.144
Stream size : 4.52 GiB (92%)
Writing library : x264 core 119 r2106 07efeb4
Encoding settings : cabac=1 / ref=4 / deblock=1:-3:-3 / analyse=0x3:0x113 / me=umh / subme=9 / psy=1 / psy_rd=1.00:0.15 / mixed_ref=1 / me_range=16 / chroma_me=1 / trellis=2 / 8x8dct=1 / cqm=0 / deadzone=21,11 / fast_pskip=1 / chroma_qp_offset=-3 / threads=3 / sliced_threads=0 / nr=0 / decimate=1 / interlaced=0 / bluray_compat=0 / constrained_intra=0 / bframes=6 / b_pyramid=2 / b_adapt=2 / b_bias=0 / direct=3 / weightb=1 / open_gop=0 / weightp=2 / keyint=250 / keyint_min=23 / scenecut=40 / intra_refresh=0 / rc_lookahead=60 / rc=crf / mbtree=1 / crf=17.0 / qcomp=0.70 / qpmin=0 / qpmax=69 / qpstep=4 / vbv_maxrate=40000 / vbv_bufsize=40000 / crf_max=0.0 / nal_hrd=none / ip_ratio=1.40 / aq=1:0.70
Language : English
Audio #2
ID : 2
Format : AC-3
Format/Info : Audio Coding 3
Mode extension : CM (complete main)
Codec ID : A_AC3
Duration : 1h 30mn
Bit rate mode : Constant
Bit rate : 448 Kbps
Channel(s) : 6 channels
Channel positions : Front: L C R, Side: L R, LFE
Sampling rate : 48.0 KHz
Bit depth : 16 bits
Compression mode : Lossy
Delay relative to video : -1mn 5s
Stream size : 289 MiB (6%)
Language : Russian

Перевод: Профессиональный (многоголосный) Дорожка обновлена
Контейнер: mkv
Формат аудио: AC3
Формат видео: h.264
Качество видео: BDrip
Размер видео: 1920×1080
формат 3D: Half SideBySide / Горизонтальная анаморфная стереопара

Кто качал, скачайте торрент поновой и запустите, обновлено
Информация о торренте
Торрент:  Зарегистрирован [17 фев 2012, 00:39] Для скачивания необходимо Зарегистрироваться!



Если Вы уже зарегистрированы, то авторизуйтесь на трекере!
Статус:  & изменил marik0505 (19 фев 2012, 16:20) по причине: Замена звуковой дорожки
Размер:  4.9 ГБ (5 263 470 188 байт)
Приватный:  Нет (DHT включён)
Хэш:  d1c8894059af4b1379fe
24bdae22f81b9dec44e8
Здоровье:  66%
.torrent скачан:  13
Как тут качать  Правила, основные инструкции, FAQ-и




 Профиль  
 
 СообщениеДобавлено: 17 фев 2012, 01:00 
Не в сети
заглянувший
Аватара пользователя
Зарегистрирован: 18 янв 2012, 23:20
Торренты: 6
Раздал: 168.14 ГБ 
Скачал: 0 байт 
Ратио: None.
Спасибо: 126 / 0
Сообщения: 8
Комментарии: 2
Релиз обновлен!
Заменена русская звуковая дорожка на лицензионную
Удалены остальные звуковые дорожки, размер файла уменьшен, качество не изменилось.


 Профиль  
 
Показать сообщения за:  Поле сортировки  
Начать новую тему Ответить на тему  [ Сообщений: 2 ] 


Кто сейчас на трекере

Сейчас этот форум просматривают: нет зарегистрированных пользователей и гости: 4


Вы не можете начинать темы
Вы не можете отвечать на сообщения
Вы не можете редактировать свои сообщения
Вы не можете удалять свои сообщения
Вы не можете добавлять вложения

Найти:


Правообладателям

!ВНИМАНИЕ!
Ресурс не предоставляет электронные версии произведений, а занимается лишь коллекционированием и каталогизацией ссылок, присылаемых и публикуемых на форуме нашими читателями. Если вы являетесь правообладателем какого-либо представленного материала и не желаете чтобы ссылка на него находилась в нашем каталоге, свяжитесь с нами и мы незамедлительно удалим её. Файлы для обмена на трекере предоставлены пользователями сайта, и администрация не несёт ответственности за их содержание. Просьба не заливать файлы, защищенные авторскими правами, а также файлы нелегального содержания!
cron
Вверх страницы
Вниз страницы
ppkBB3cker v.2 © 2008-2011 @ PPK