3d-tracker.ru • Просмотр темы - Делай ноги 2 3Д

Регистрация Имя: Пароль: Запомнить Забыли пароль?



Правила форума





Начать новую тему Ответить на тему  [ Сообщений: 2 ] 
Статистика раздачи
Размер: 5.49 ГБ | Зарегистрирован: 01 мар 2012, 18:59 | .torrent скачан: 9
Сиды: 39 [0 байт/сек]    Личи: 22 [0 байт/сек]
Автор Сообщение
 СообщениеДобавлено: 01 мар 2012, 18:59 
Не в сети
Опытный
Аватара пользователя
Зарегистрирован: 14 янв 2012, 02:46
Торренты: 43
Раздал: 7.18 ТБ 
Скачал: 157.95 ГБ 
Ратио: 46.557
Спасибо: 832 / 7
Сообщения: 52
Комментарии: 8

Оригинальное название: Happy Feet Two 3D
Страна: США
Продолжительность: 01:39:00
Дата выхода: 2011
Жанр: мультфильм, комедия, семейный, музыка
Режиссёр: Джордж Миллер
В ролях: Элайджа Вуд, Робин Уильямс, Хэнк Азария, Пинк, Брэд Питт, Мэтт Дэймон, София Вергара, Карлос Алазраки, Ломбардо Бойяр, Джефф Гарсиа
О фильме: Неутомимый пингвин Мамбл, некогда покоривший своим блестящим танцорским талантом целое племя императорских пингвинов, стал отцом. Его малыш - Эрик, в точности такой же свободолюбивый и независимый, как и папа, но в своих амбициях и авантюрах, несмотря на свой юный возраст, уже способен дать хорошую фору отцу и всем окружающим. Кумиром малыша становится Могучий Свен, - пингвин, умеющий летать. Во всём следуя и подражая ему, Эрик ни в какую не собирается учиться танцевать, вопреки планам и убеждениям Мамбла. Однако, настоящие трудности и проблемы состоят в другом, и, чтобы таковые преодолеть не без успеха, Мамблу и Эрику предстоит забыть о предрассудках и разногласиях, встав на защиту общих интересов и идеалов...



MediaInfo: Format : Matroska
Format version : Version 2
File size : 5.49 GiB
Duration : 1h 39mn
Overall bit rate : 7 909 Kbps
Movie name : HAPPY_FEET_2_3D_Half-OverUnder_[torrent3d.ru]
Encoded date : UTC 2012-02-29 22:54:06
Writing application : mkvmerge v4.0.0 ('The Stars were mine') сборка от Jun 6 2010 16:18:42
Writing library : libebml v1.0.0 + libmatroska v1.0.0

Video
ID : 1
Format : AVC
Format/Info : Advanced Video Codec
Format profile : High@L4.1
Format settings, CABAC : Yes
Format settings, ReFrames : 2 frames
Codec ID : V_MPEG4/ISO/AVC
Duration : 1h 39mn
Bit rate : 7 303 Kbps
Width : 1 920 pixels
Height : 1 080 pixels
Display aspect ratio : 16:9
Frame rate : 23.976 fps
Color space : YUV
Chroma subsampling : 4:2:0
Bit depth : 8 bits
Scan type : Progressive
Bits/(Pixel*Frame) : 0.147
Stream size : 5.07 GiB (92%)
Writing library : x264 core
Default : Yes
Forced : No
Color primaries : BT.709-5, BT.1361, IEC 61966-2-4, SMPTE RP177
Transfer characteristics : BT.709-5, BT.1361
Matrix coefficients : BT.709-5, BT.1361, IEC 61966-2-4 709, SMPTE RP177

Audio
ID : 2
Format : AC-3
Format/Info : Audio Coding 3
Mode extension : CM (complete main)
Codec ID : A_AC3
Duration : 1h 39mn
Bit rate mode : Constant
Bit rate : 448 Kbps
Channel(s) : 6 channels
Channel positions : Front: L C R, Side: L R, LFE
Sampling rate : 48.0 KHz
Bit depth : 16 bits
Compression mode : Lossy
Stream size : 319 MiB (6%)
Language : Russian
Default : Yes
Forced : No

Перевод: Профессиональный (многоголосный)
Контейнер: mkv
Формат аудио: AC3
Формат видео: x264
Качество видео: BDrip
Размер видео: 1920×1080
формат 3D: Half OverUnder / Вертикальная анаморфная стереопара
Дополнительно: Автор рипа: MoRo
Информация о торренте
Торрент:  Зарегистрирован [01 мар 2012, 18:59] Для скачивания необходимо Зарегистрироваться!



Если Вы уже зарегистрированы, то авторизуйтесь на трекере!
Статус:  
Размер:  5.49 ГБ (5 899 097 885 байт)
Приватный:  Нет (DHT включён)
Хэш:  57387f37e13dbcfd7e30
2998ee40f31ff266515d
Здоровье:  100%
.torrent скачан:  9
Как тут качать  Правила, основные инструкции, FAQ-и




 Профиль  
 
 СообщениеДобавлено: 07 апр 2012, 18:28 
Не в сети
заглянувший
Аватара пользователя
Зарегистрирован: 07 апр 2012, 12:05
Торренты: 0
Раздал: 135.37 ГБ 
Скачал: 39.32 ГБ 
Ратио: 3.443
Спасибо: 0 / 3
Сообщения: 18
Комментарии: 18
Откуда: Российская Федерация
поставил на закачку :-):


 Профиль  
 
Показать сообщения за:  Поле сортировки  
Начать новую тему Ответить на тему  [ Сообщений: 2 ] 


Кто сейчас на трекере

Сейчас этот форум просматривают: нет зарегистрированных пользователей и гости: 5


Вы не можете начинать темы
Вы не можете отвечать на сообщения
Вы не можете редактировать свои сообщения
Вы не можете удалять свои сообщения
Вы не можете добавлять вложения

Найти:


Правообладателям

!ВНИМАНИЕ!
Ресурс не предоставляет электронные версии произведений, а занимается лишь коллекционированием и каталогизацией ссылок, присылаемых и публикуемых на форуме нашими читателями. Если вы являетесь правообладателем какого-либо представленного материала и не желаете чтобы ссылка на него находилась в нашем каталоге, свяжитесь с нами и мы незамедлительно удалим её. Файлы для обмена на трекере предоставлены пользователями сайта, и администрация не несёт ответственности за их содержание. Просьба не заливать файлы, защищенные авторскими правами, а также файлы нелегального содержания!
cron
Вверх страницы
Вниз страницы
ppkBB3cker v.2 © 2008-2011 @ PPK