3d-tracker.ru • Просмотр темы - Ржевский против Наполеона 3Д

Регистрация Имя: Пароль: Запомнить Забыли пароль?



Правила форума





Начать новую тему Ответить на тему  [ 1 сообщение ] 
Статистика раздачи
Размер: 4.63 ГБ | Зарегистрирован: 01 апр 2012, 09:57 | .torrent скачан: 29
Сиды: 2 [0 байт/сек]    Личи: 5 [0 байт/сек]
Автор Сообщение
 СообщениеДобавлено: 01 апр 2012, 09:57 
Не в сети
гуру
Аватара пользователя
Зарегистрирован: 02 янв 2012, 21:30
Торренты: 180
Раздал: 36.49 ТБ 
Скачал: 9.77 ТБ 
Ратио: 3.734
Спасибо: 3343 / 73
Сообщения: 276
Комментарии: 95
Откуда: Рязань

Страна: Россия, Украина
Продолжительность: 01:23:08
Дата выхода: 2011
Жанр: комедия
Режиссёр: Марюс Вайсберг / Marius Balchunas
В ролях: Павел Деревянко, Владимир Зеленский, Светлана Ходченкова, Михаил Ефремов, Марат Башаров, Евгений Кошевой, Жан-Клод Ван Дамм, Анна Семенович, Анфиса Чехова, Михаил Галустян
О фильме: Чтобы развеять скуку, Наполеон Бонапарт затеял мировую войну. Не пропуская ни одной юбки, он оказывается со своей армией у ворот Первопрестольной. Русские полководцы решают внедрить к нему неприступную красавицу, la femme fatal, чтобы отвлечь узурпатора от захватнической деятельности. Только какая настоящая женщина устоит перед обаянием этого великого бабника? Ненастоящая!!! В смысле - переодетый мужчина! И такой мужчина есть - поручик Ржевский...





MediaInfo: General
Complete name : D:\скачка\torrent\NAPOLEON_3D_BLUEBIRD.edis.3d-tracker.ru .mkv
Format : Matroska
File size : 4.63 GiB
Duration : 1h 23mn
Overall bit rate : 7 971 Kbps
Movie name : NAPOLEON_3D_BLUEBIRD.edis.3d-tracker.ru.Bluray3DRip
Encoded date : UTC 2012-04-01 04:10:08
Writing application : mkvmerge v4.2.0 ('No Talking') сборка от Jul 28 2010 18:38:23
Writing library : libebml v1.0.0 + libmatroska v1.0.0

Video
ID : 1
Format : AVC
Format/Info : Advanced Video Codec
Format profile : High@L5.1
Format settings, CABAC : Yes
Format settings, ReFrames : 2 frames
Muxing mode : Container profile=Unknown@4.1
Codec ID : V_MPEG4/ISO/AVC
Duration : 1h 23mn
Bit rate : 7 301 Kbps
Width : 1 920 pixels
Height : 1 080 pixels
Display aspect ratio : 16:9
Frame rate : 23.976 fps
Resolution : 24 bits
Colorimetry : 4:2:0
Scan type : Progressive
Bits/(Pixel*Frame) : 0.147
Stream size : 4.24 GiB (91%)
Title : edis.3d-tracker.ru
Writing library : x264 core

Audio
ID : 2
Format : AC-3
Format/Info : Audio Coding 3
Codec ID : A_AC3
Duration : 1h 23mn
Bit rate mode : Constant
Bit rate : 512 Kbps
Channel(s) : 6 channels
Channel positions : Front: L C R, Surround: L R, LFE
Sampling rate : 48.0 KHz
Stream size : 305 MiB (6%)
Title : edis.3d-tracker.ru

Перевод: Оригинал
Контейнер: mkv
Формат аудио: AAC
Формат видео: x264
Качество видео: BDrip
Размер видео: 1920×1080
формат 3D: Half OverUnder / Вертикальная анаморфная стереопара
Информация о торренте
Торрент:  Зарегистрирован [01 апр 2012, 09:57] Для скачивания необходимо Зарегистрироваться!



Если Вы уже зарегистрированы, то авторизуйтесь на трекере!
Статус:  
Размер:  4.63 ГБ (4 971 085 794 байт)
Приватный:  Нет (DHT включён)
Хэш:  b0e34805ffd41e9f5a21
f0b5224fe4b4a4d9c0da
Здоровье:  40%
.torrent скачан:  29
Как тут качать  Правила, основные инструкции, FAQ-и



_________________

Мои раздачи


 Профиль  
 
Показать сообщения за:  Поле сортировки  
Начать новую тему Ответить на тему  [ 1 сообщение ] 


Кто сейчас на трекере

Сейчас этот форум просматривают: нет зарегистрированных пользователей и гости: 1


Вы не можете начинать темы
Вы не можете отвечать на сообщения
Вы не можете редактировать свои сообщения
Вы не можете удалять свои сообщения
Вы не можете добавлять вложения

Найти:


Правообладателям

!ВНИМАНИЕ!
Ресурс не предоставляет электронные версии произведений, а занимается лишь коллекционированием и каталогизацией ссылок, присылаемых и публикуемых на форуме нашими читателями. Если вы являетесь правообладателем какого-либо представленного материала и не желаете чтобы ссылка на него находилась в нашем каталоге, свяжитесь с нами и мы незамедлительно удалим её. Файлы для обмена на трекере предоставлены пользователями сайта, и администрация не несёт ответственности за их содержание. Просьба не заливать файлы, защищенные авторскими правами, а также файлы нелегального содержания!
cron
Вверх страницы
Вниз страницы
ppkBB3cker v.2 © 2008-2011 @ PPK