3d-tracker.ru • Просмотр темы - Голые амбиции в 3Д / Naked Ambition 3D (2014) [BDrip, 1080p] Half SideBySide / Горизонтальная анаморфная стереопара

Регистрация Имя: Пароль: Запомнить Забыли пароль?



Правила форума





Начать новую тему Ответить на тему  [ 1 сообщение ] 
Статистика раздачи
Размер: 9.55 ГБ | Зарегистрирован: 31 июл 2014, 14:13 | .torrent скачан: 56
Сиды: 86 [0 байт/сек]    Личи: 38 [0 байт/сек]
Автор Сообщение
 СообщениеДобавлено: 31 июл 2014, 14:22 
Не в сети
гуру
Аватара пользователя
Зарегистрирован: 17 дек 2012, 15:37
Торренты: 912
Раздал: 299.4 ТБ 
Скачал: 7.77 ТБ 
Ратио: 38.527
Спасибо: 4785 / 0
Сообщения: 1220
Комментарии: 587
Откуда: Донецк - это Украина!

Голые амбиции в 3Д / Naked Ambition 3D


Год выхода: 2014
Жанр: комедия, эротика

Режиссер: Койти Сакамото
В ролях: Чэпмэн То, Джоси Хо, Йоки Маико, Сандра Энг, Луис Ку, Вон Чжин, Шарлин Чой, Дерек Цанг, Като Така, Тацуми Юи, Аои Цукаса, Тайсон Ди, Юми Кана, Анри Окита

О фильме: Вэймэн Чан пишет эротические рассказы для порно-колонки в газете, однако с распространением интернета в массах, печатное порно перестает пользоваться спросом, колонку закрывают, а Чан теряет работу. И тут случайно у него и его друзей возникает идея снять собственное порно и они погружаются в манящий мир порно-индустрии...

Выпущено: Гонконг
Продолжительность: 01:46:30
Озвучивание: Любительское (одноголосое) [den904]

Формат 3D: Half SideBySide / Горизонтальная анаморфная стереопара
Порядок ракурсов: левый ракурс первый
Качество: BDRip
Контейнер: MKV
Видео кодек: x264
Аудио кодек: AC3
Видео: MPEG-4 AVC, 12 Mбит/сек, 1920х1080, 23.976 кадр/с
Аудио 1: Русский, АС3, 48.0 KHz, 2 ch, 192 Kbps [Любительский одноголосый - den904]
Аудио 2: Chinese, AC3, 48.0 KHz, 6 ch, 640 Kbps [Original (Cantonese, Mandarin)]

Format                                   : Matroska
Format version                           : Version 2
File size                                : 9.55 GiB
Duration                                 : 1h 46mn
Overall bit rate                         : 12.8 Mbps
Movie name                               : 3D.Naked.Ambition.2014.H-SBS.[torrent3d.net]
Encoded date                             : UTC 2014-07-31 08:39:20
Writing application                      : mkvmerge v4.0.0 ('The Stars were mine') сборка от Jun  6 2010 16:18:42
Writing library                          : libebml v1.0.0 + libmatroska v1.0.0


Video
ID                                       : 1
Format                                   : AVC
Format/Info                              : Advanced Video Codec
Format profile                           : High@L4.1
Format settings, CABAC                   : Yes
Format settings, ReFrames                : 4 frames
Codec ID                                 : V_MPEG4/ISO/AVC
Duration                                 : 1h 46mn
Bit rate                                 : 12.0 Mbps
Width                                    : 1 920 pixels
Height                                   : 1 080 pixels
Display aspect ratio                     : 16:9
Frame rate mode                          : Constant
Frame rate                               : 23.976 fps
Color space                              : YUV
Chroma subsampling                       : 4:2:0
Bit depth                                : 8 bits
Scan type                                : Progressive
Bits/(Pixel*Frame)                       : 0.241
Stream size                              : 8.74 GiB (92%)
Writing library                          : x264 core 129 r2230 1cffe9f
Encoding settings                        : cabac=1 / ref=4 / deblock=1:-3:-3 / analyse=0x3:0x133 / me=umh / subme=11 / psy=1 / psy_rd=1.05:0.10 / mixed_ref=1 / me_range=64 / chroma_me=1 / trellis=2 / 8x8dct=1 / cqm=0 / deadzone=21,11 / fast_pskip=0 / chroma_qp_offset=-3 / threads=12 / lookahead_threads=2 / sliced_threads=0 / nr=0 / decimate=1 / interlaced=0 / bluray_compat=0 / constrained_intra=0 / bframes=8 / b_pyramid=2 / b_adapt=2 / b_bias=0 / direct=3 / weightb=1 / open_gop=0 / weightp=2 / keyint=250 / keyint_min=23 / scenecut=40 / intra_refresh=0 / rc_lookahead=80 / rc=2pass / mbtree=1 / bitrate=12000 / ratetol=1.0 / qcomp=0.60 / qpmin=0 / qpmax=69 / qpstep=4 / cplxblur=20.0 / qblur=0.5 / vbv_maxrate=40000 / vbv_bufsize=30000 / nal_hrd=none / ip_ratio=1.40 / aq=1:0.80
Default                                  : No
Forced                                   : No


Audio #1
ID                                       : 2
Format                                   : AC-3
Format/Info                              : Audio Coding 3
Mode extension                           : CM (complete main)
Format settings, Endianness              : Big
Codec ID                                 : A_AC3
Duration                                 : 1h 46mn
Bit rate mode                            : Constant
Bit rate                                 : 192 Kbps
Channel(s)                               : 2 channels
Channel positions                        : Front: L R
Sampling rate                            : 48.0 KHz
Bit depth                                : 16 bits
Compression mode                         : Lossy
Stream size                              : 146 MiB (1%)
Title                                    : Любительское (одноголосое) [den904]
Language                                 : Russian
Default                                  : Yes
Forced                                   : Yes


Audio #2
ID                                       : 3
Format                                   : AC-3
Format/Info                              : Audio Coding 3
Mode extension                           : CM (complete main)
Format settings, Endianness              : Big
Codec ID                                 : A_AC3
Duration                                 : 1h 46mn
Bit rate mode                            : Constant
Bit rate                                 : 640 Kbps
Channel(s)                               : 6 channels
Channel positions                        : Front: L C R, Side: L R, LFE
Sampling rate                            : 48.0 KHz
Bit depth                                : 16 bits
Compression mode                         : Lossy
Stream size                              : 488 MiB (5%)
Title                                    : Chinese
Language                                 : Chinese
Default                                  : No
Forced                                   : No
Информация о торренте
Торрент:  Зарегистрирован [31 июл 2014, 14:13] Для скачивания необходимо Зарегистрироваться!



Если Вы уже зарегистрированы, то авторизуйтесь на трекере!
Статус:  
Размер:  9.55 ГБ (10 249 273 411 байт)
Приватный:  Нет (DHT включён)
Хэш:  d5a77bf4c9f08b8d9ff7
108f7aaeafcbcb37fe54
Здоровье:  100%
.torrent скачан:  56
Как тут качать  Правила, основные инструкции, FAQ-и




 Профиль  
 
Показать сообщения за:  Поле сортировки  
Начать новую тему Ответить на тему  [ 1 сообщение ] 


Кто сейчас на трекере

Сейчас этот форум просматривают: нет зарегистрированных пользователей и гости: 3


Вы не можете начинать темы
Вы не можете отвечать на сообщения
Вы не можете редактировать свои сообщения
Вы не можете удалять свои сообщения
Вы не можете добавлять вложения

Найти:


Правообладателям

!ВНИМАНИЕ!
Ресурс не предоставляет электронные версии произведений, а занимается лишь коллекционированием и каталогизацией ссылок, присылаемых и публикуемых на форуме нашими читателями. Если вы являетесь правообладателем какого-либо представленного материала и не желаете чтобы ссылка на него находилась в нашем каталоге, свяжитесь с нами и мы незамедлительно удалим её. Файлы для обмена на трекере предоставлены пользователями сайта, и администрация не несёт ответственности за их содержание. Просьба не заливать файлы, защищенные авторскими правами, а также файлы нелегального содержания!
cron
Вверх страницы
Вниз страницы
ppkBB3cker v.2 © 2008-2011 @ PPK