3d-tracker.ru • Просмотр темы - Голые амбиции в 3Д / Naked Ambition 3D (2014) [BDrip, 1080p] Crop Half OverUnder / Вертикальная анаморфная стереопара Без черных полос (На весь экран)

Регистрация Имя: Пароль: Запомнить Забыли пароль?



Правила форума





Начать новую тему Ответить на тему  [ Сообщений: 2 ] 
Статистика раздачи
Размер: 10.13 ГБ | Зарегистрирован: 06 авг 2014, 13:38 | .torrent скачан: 73
Сиды: 48 [0 байт/сек]    Личи: 14 [0 байт/сек]
Автор Сообщение
 СообщениеДобавлено: 06 авг 2014, 13:39 
Не в сети
гуру
Аватара пользователя
Зарегистрирован: 17 дек 2012, 15:37
Торренты: 912
Раздал: 299.4 ТБ 
Скачал: 7.77 ТБ 
Ратио: 38.527
Спасибо: 4785 / 0
Сообщения: 1215
Комментарии: 587
Откуда: Донецк - это Украина!

Голые амбиции в 3Д / Naked Ambition 3D (2014) Crop halfOU


Год выпуска: 2014
Жанр: Комедия

Описание фильма:
Вэймэн Чан пишет эротические рассказы для порно-колонки в газете, однако с распространением интернета в массах, печатное порно перестает пользоваться спросом, колонку закрывают, а Чан теряет работу. И тут случайно у него и его друзей возникает идея снять собственное порно и они погружаются в манящий мир порно-индустрии.

Режиссер: Луис Ку
Актеры: Джози Хо, Така Като, Луис Ку, Чэпман То

Продолжительность: 01:46:30
Качество видео: BDRip
Перевод: Одноголосый закадровый, любительский
Озвучка: den904

Внимание! Присутствует ненормативная лексика!



Дата мировой премьеры: 25 марта 2014

Видеокодек: MPEG-4 AVC/H.264
Битрейт видео: ~12,5 Мбит/сек
Размер кадра: 1920x1080
Аудио 1: AC3 2.0, 192 kbps [Русский]
Аудио 2: AC3 5.1, 640 kbps [Китайский]

Внимание: Справа и слева у видеоряда обрезано по 232р, что дает возможность просмотра на полный экран (без черных полос) на телевизорах с соотношением сторон 16:9 без изменения пропорций.
Общее
Уникальный идентификатор : 185349478289308455639508019706097488476 (0x8B7102D39BD645BCA32B5B95C5D2D25C)
Полное имя : F:\my films\NAKED_AMBITION_3D..mkv
Формат : Matroska
Версия формата : Version 2
Размер файла : 10,1 Гбайт
Продолжительность : 1 ч. 46 м.
Общий поток : 13,6 Мбит/сек
Дата кодирования : UTC 2014-08-05 15:05:43
Программа кодирования : mkvmerge v7.0.0 ('Where We Going') 32bit built on Jun 9 2014 15:08:34
Библиотека кодирования : libebml v1.3.0 + libmatroska v1.4.1
DURATION : 01:46:30.080000000
NUMBER_OF_FRAMES : 199690
NUMBER_OF_BYTES : 511206400
_STATISTICS_WRITING_APP : mkvmerge v7.0.0 ('Where We Going') 32bit built on Jun 9 2014 15:08:34
_STATISTICS_WRITING_DATE_UTC : 2014-08-05 15:05:43
_STATISTICS_TAGS : BPS DURATION NUMBER_OF_FRAMES NUMBER_OF_BYTES

Видео
Идентификатор : 1
Формат : AVC
Формат/Информация : Advanced Video Codec
Профиль формата : [url=mailto:High@L4.1]High@L4.1[/url]
Параметр CABAC формата : Да
Параметр ReFrames формата : 4 кадра
Идентификатор кодека : V_MPEG4/ISO/AVC
Продолжительность : 1 ч. 46 м.
Битрейт : 12,5 Мбит/сек
Ширина : 1920 пикселей
Высота : 1080 пикселей
Соотношение сторон : 16:9
Режим частоты кадров : Постоянный
Частота кадров : 23,976 кадра/сек
Цветовое пространство : YUV
Субдискретизация насыщенности : 4:2:0
Битовая глубина : 8 бит
Тип развёртки : Прогрессивная
Бит/(Пиксели*Кадры) : 0.252
Размер потока : 9,31 Гбайт (92%)
Заголовок : rip by I/N
Библиотека кодирования : x264 core 128 r2216M 198a7ea
Настройки программы : cabac=1 / ref=4 / deblock=1:-3:-3 / analyse=0x3:0x133 / me=umh / subme=10 / psy=1 / psy_rd=1.00:0.15 / mixed_ref=1 / me_range=32 / chroma_me=1 / trellis=2 / 8x8dct=1 / cqm=0 / deadzone=21,11 / fast_pskip=1 / chroma_qp_offset=-3 / threads=8 / lookahead_threads=1 / sliced_threads=0 / nr=0 / decimate=1 / interlaced=0 / bluray_compat=0 / constrained_intra=0 / bframes=6 / b_pyramid=2 / b_adapt=2 / b_bias=0 / direct=3 / weightb=1 / open_gop=0 / weightp=2 / keyint=230 / keyint_min=23 / scenecut=40 / intra_refresh=0 / rc_lookahead=60 / rc=crf / mbtree=1 / crf=17.0 / qcomp=0.60 / qpmin=0 / qpmax=69 / qpstep=4 / vbv_maxrate=40000 / vbv_bufsize=30000 / crf_max=30.0 / nal_hrd=none / ip_ratio=1.40 / aq=1:1.00
Default : Да
Forced : Нет

Аудио #1
Идентификатор : 2
Формат : AC-3
Формат/Информация : Audio Coding 3
Расширение режима : CM (complete main)
Параметр Endianness формата : Big
Идентификатор кодека : A_AC3
Продолжительность : 1 ч. 46 м.
Вид битрейта : Постоянный
Битрейт : 192 Кбит/сек
Каналы : 2 канала
Расположение каналов : Front: L R
Частота : 48,0 КГц
Битовая глубина : 16 бит
Метод сжатия : С потерями
Размер потока : 146 Мбайт (1%)
Заголовок : VO - den904
Язык : Russian
Default : Да
Forced : Нет

Аудио #2
Идентификатор : 3
Формат : AC-3
Формат/Информация : Audio Coding 3
Расширение режима : CM (complete main)
Параметр Endianness формата : Big
Идентификатор кодека : A_AC3
Продолжительность : 1 ч. 46 м.
Вид битрейта : Постоянный
Битрейт : 640 Кбит/сек
Каналы : 6 каналов
Расположение каналов : Front: L C R, Side: L R, LFE
Частота : 48,0 КГц
Битовая глубина : 16 бит
Метод сжатия : С потерями
Размер потока : 488 Мбайт (5%)
Заголовок : Original
Язык : Chinese
Default : Нет
Forced : Нет

Меню
00:00:00.000 : en:00:00:00.000
00:06:52.537 : en:00:06:52.537
00:10:22.288 : en:00:10:22.288
00:15:03.903 : en:00:15:03.903
00:20:03.327 : en:00:20:03.327
00:25:51.925 : en:00:25:51.925
00:30:15.147 : en:00:30:15.147
00:35:36.593 : en:00:35:36.593
00:40:28.009 : en:00:40:28.009
00:46:02.468 : en:00:46:02.468
00:51:17.074 : en:00:51:17.074
00:56:34.099 : en:00:56:34.099
01:01:08.164 : en:01:01:08.164
01:04:29.949 : en:01:04:29.949
01:10:18.464 : en:01:10:18.464
01:14:54.782 : en:01:14:54.782
01:20:11.807 : en:01:20:11.807
01:27:27.742 : en:01:27:27.742
01:33:11.336 : en:01:33:11.336
01:44:04.989 : en:01:44:04.989

Справа и слева у видеоряда обрезано по 232р, что дает возможность просмотра на полный экран (без черных полос) на телевизорах с соотношением сторон 16:9 без изменения пропорций. На мой взгляд плюсы данных рипов- это более глубокое восприятие 3D-эффектов (конечно там где они есть) К минусам отнесу- вынужденное обрезание кадра по бокам. Так-что господа- выбор за вами!
Всем приятного просмотра!
Информация о торренте
Торрент:  Зарегистрирован [06 авг 2014, 13:38] Для скачивания необходимо Зарегистрироваться!



Если Вы уже зарегистрированы, то авторизуйтесь на трекере!
Статус:  
Размер:  10.13 ГБ (10 872 389 404 байт)
Приватный:  Нет (DHT включён)
Хэш:  ce85d00c4d8812465b95
9d1821b099514b1a5a92
Здоровье:  100%
.torrent скачан:  73
Как тут качать  Правила, основные инструкции, FAQ-и




 Профиль  
 
 СообщениеДобавлено: 27 апр 2016, 22:36 
Не в сети
заглянувший
Аватара пользователя
Зарегистрирован: 01 мар 2015, 20:00
Торренты: 0
Раздал: 5 ГБ 
Скачал: 0 байт 
Ратио: None.
Спасибо: 0 / 0
Сообщения: 2
Комментарии: 3
Круто) :ya_hoo_oo: а есть Сент-Амур: Удовольствия любви? http://films.imhonet.ru/element/10151829/


 Профиль  
 
Показать сообщения за:  Поле сортировки  
Начать новую тему Ответить на тему  [ Сообщений: 2 ] 


Кто сейчас на трекере

Сейчас этот форум просматривают: нет зарегистрированных пользователей и гости: 1


Вы не можете начинать темы
Вы не можете отвечать на сообщения
Вы не можете редактировать свои сообщения
Вы не можете удалять свои сообщения
Вы не можете добавлять вложения

Найти:


Правообладателям

!ВНИМАНИЕ!
Ресурс не предоставляет электронные версии произведений, а занимается лишь коллекционированием и каталогизацией ссылок, присылаемых и публикуемых на форуме нашими читателями. Если вы являетесь правообладателем какого-либо представленного материала и не желаете чтобы ссылка на него находилась в нашем каталоге, свяжитесь с нами и мы незамедлительно удалим её. Файлы для обмена на трекере предоставлены пользователями сайта, и администрация не несёт ответственности за их содержание. Просьба не заливать файлы, защищенные авторскими правами, а также файлы нелегального содержания!
cron
Вверх страницы
Вниз страницы
ppkBB3cker v.2 © 2008-2011 @ PPK