3d-tracker.ru • Просмотр темы - Непристойное кино 3Д / Sex Pot 3D

Регистрация Имя: Пароль: Запомнить Забыли пароль?



Правила форума





Начать новую тему Ответить на тему  [ Сообщений: 2 ] 
Статистика раздачи
Размер: 7.09 ГБ | Зарегистрирован: 26 май 2012, 20:37 | .torrent скачан: 151
Сиды: 29 [0 байт/сек]    Личи: 8 [0 байт/сек]
Автор Сообщение
 СообщениеДобавлено: 26 май 2012, 20:37 
Не в сети
Опытный
Аватара пользователя
Зарегистрирован: 14 янв 2012, 02:46
Торренты: 43
Раздал: 7.18 ТБ 
Скачал: 147.38 ГБ 
Ратио: 49.894
Спасибо: 828 / 7
Сообщения: 52
Комментарии: 8

Страна: США
Продолжительность: 01:35:54
Дата выхода: 2009
Жанр: Комедия
Режиссёр: Эрик Форсберг / Eric Forsberg
В ролях: Роллин Перри, Сет Кэссел, Мишель Пеник, Рана Дэвис, Морис Констебл, Линдси Ахерн, Брент Энтони, Терил Бруйетт, Тереза Дево, Джеки Нико
О фильме: Когда на носу выпускной, а ты еще девственник — тут не до шуток. Надо срочно что-то предпринять, чтобы стать крутым перцем! Двое закадычных друзей Мерт и Джош решают лишиться девственности за один день. Но как это сделать неопытным и малопривлекательным школьникам? Остается одно — прибегнуть к помощи старших товарищей. Друзей ждет целый набор приключений — угон автомобиля, встреча с психованными подружками братца Мерта и отвязная вечеринка, где парни оторвутся по полной!!!





MediaInfo: Format : Matroska
Format version : Version 2
File size : 7.09 GiB
Duration : 1h 35mn
Overall bit rate : 10.6 Mbps
Movie name : Sex Pot (2009) 3D Half-SBS
Encoded date : UTC 2012-05-22 16:34:48
Writing application : mkvmerge v4.0.0 ('The Stars were mine') сборка от Jun 6 2010 16:18:42
Writing library : libebml v1.0.0 + libmatroska v1.0.0

Video
ID : 1
Format : AVC
Format/Info : Advanced Video Codec
Format profile : High@L4.1
Format settings, CABAC : Yes
Format settings, ReFrames : 2 frames
Codec ID : V_MPEG4/ISO/AVC
Duration : 1h 35mn
Bit rate : 9 538 Kbps
Width : 1 920 pixels
Height : 1 080 pixels
Display aspect ratio : 16:9
Frame rate : 23.976 fps
Color space : YUV
Chroma subsampling : 4:2:0
Bit depth : 8 bits
Scan type : Progressive
Bits/(Pixel*Frame) : 0.192
Stream size : 6.39 GiB (90%)
Writing library : x264 core
Color primaries : BT.709-5, BT.1361, IEC 61966-2-4, SMPTE RP177
Transfer characteristics : BT.709-5, BT.1361
Matrix coefficients : BT.709-5, BT.1361, IEC 61966-2-4 709, SMPTE RP177

Audio #1
ID : 2
Format : AC-3
Format/Info : Audio Coding 3
Mode extension : CM (complete main)
Codec ID : A_AC3
Duration : 1h 35mn
Bit rate mode : Constant
Bit rate : 192 Kbps
Channel(s) : 2 channels
Channel positions : Front: L R
Sampling rate : 48.0 KHz
Bit depth : 16 bits
Compression mode : Lossy
Stream size : 132 MiB (2%)
Language : Russian

Audio #2
ID : 3
Format : AC-3
Format/Info : Audio Coding 3
Mode extension : CM (complete main)
Codec ID : A_AC3
Duration : 1h 35mn
Bit rate mode : Constant
Bit rate : 640 Kbps
Channel(s) : 6 channels
Channel positions : Front: L C R, Side: L R, LFE
Sampling rate : 48.0 KHz
Bit depth : 16 bits
Compression mode : Lossy
Stream size : 439 MiB (6%)
Language : English

Перевод: Профессиональный (многоголосный)
Контейнер: mkv
Формат аудио: AC3
Формат видео: x264
Качество видео: BDrip
Размер видео: 1920×1080
формат 3D: Half SideBySide / Горизонтальная анаморфная стереопара
Информация о торренте
Торрент:  Зарегистрирован [26 май 2012, 20:37] Для скачивания необходимо Зарегистрироваться!



Если Вы уже зарегистрированы, то авторизуйтесь на трекере!
Статус:  
Размер:  7.09 ГБ (7 610 608 554 байт)
Приватный:  Нет (DHT включён)
Хэш:  5e2bd97674f158aa5f4d
4383d9bb5e0915d0dd6b
Здоровье:  100%
.torrent скачан:  151
Как тут качать  Правила, основные инструкции, FAQ-и




 Профиль  
 
 СообщениеДобавлено: 09 мар 2013, 10:48 
Не в сети
заглянувший
Зарегистрирован: 17 фев 2013, 20:09
Торренты: 0
Раздал: 5.14 ГБ 
Скачал: 178.13 ГБ 
Ратио: 0.029
Спасибо: 0 / 1
Сообщения: 1
Комментарии: 1
:-):


 Профиль  
 
Показать сообщения за:  Поле сортировки  
Начать новую тему Ответить на тему  [ Сообщений: 2 ] 


Кто сейчас на трекере

Сейчас этот форум просматривают: нет зарегистрированных пользователей и гости: 6


Вы не можете начинать темы
Вы не можете отвечать на сообщения
Вы не можете редактировать свои сообщения
Вы не можете удалять свои сообщения
Вы не можете добавлять вложения

Найти:


Правообладателям

!ВНИМАНИЕ!
Ресурс не предоставляет электронные версии произведений, а занимается лишь коллекционированием и каталогизацией ссылок, присылаемых и публикуемых на форуме нашими читателями. Если вы являетесь правообладателем какого-либо представленного материала и не желаете чтобы ссылка на него находилась в нашем каталоге, свяжитесь с нами и мы незамедлительно удалим её. Файлы для обмена на трекере предоставлены пользователями сайта, и администрация не несёт ответственности за их содержание. Просьба не заливать файлы, защищенные авторскими правами, а также файлы нелегального содержания!
cron
Вверх страницы
Вниз страницы
ppkBB3cker v.2 © 2008-2011 @ PPK