3d-tracker.ru • Просмотр темы - Формула любви / 3D (1984) [BDRip, 1080p, Half Side-by-Side / Горизонтальная анаморфная стереопара]

Регистрация Имя: Пароль: Запомнить Забыли пароль?



Правила форума





Начать новую тему Ответить на тему  [ 1 сообщение ] 
Статистика раздачи
Размер: 8.26 ГБ | Зарегистрирован: 07 мар 2017, 09:37 | .torrent скачан: 5
Сиды: 3 [0 байт/сек]    Личи: 1 [0 байт/сек]
Автор Сообщение
 СообщениеДобавлено: 07 мар 2017, 09:37 
Не в сети
Супермодератор
Аватара пользователя
Зарегистрирован: 15 апр 2014, 21:21
Торренты: 518
Раздал: 35.61 ТБ 
Скачал: 1.83 ТБ 
Ратио: 30.526
Спасибо: 2974 / 212
Сообщения: 684
Комментарии: 311
Откуда: РОССИЯ, ЦФО

Оригинальное название: Формула любви
Год выпуска: 1984
Жанр: Комедия, мелодрама, музыкальный, приключения, экранизация
Выпущено: СССР, Мосфильм

Режиссер: Марк Захаров
В ролях: Нодар Мгалоблишвили, Елена Валюшкина, Александр Михайлов (III), Александр Абдулов, Семён Фарада, Елена Аминова, Татьяна Пельтцер, Леонид Броневой, Александра Захарова, Николай Скоробогатов, Анна Андриянова, Анна Фроловцева, Вячеслав Горбунчиков, Владимир Мышкин, Александра Терехина, Александра Харитонова, Григорий Всеволодов, Виктор Махмутов, Александр Куломзин, Георгий Крамеров, Владимир Ткалич, Маргарита Мерино, Николай Карнаухов, Григорий Маликов, Владимир Мурашов, Татьяна Ромашина, Наталия Трубникова, Геннадий Гладков, Григорий Горин
О фильме: Музыкальная комедия по мотивам повести Алексея Толстого «Граф Калиостро». В 1780 году Джузеппе Калиостро прибыл в Россию для представления высшей знати. Умыкнув под предлогом лечения отца юную Марью Ивановну, граф пытается влюбить в себя девицу, но безуспешно. В провинциальном поместье, где волею случая оказались путешественники, живет юноша, влюбленный в мраморную статую. С помощью Калиостро он надеется оживить мрамор, но встреча с живой Машей все меняет...

Размер: 8.26 ГБ
Продолжительность: 01:30:11
Язык: Русский

Качество: BDRip (1080р) by SOLdAt
Видео: AVC, 13000 Кбит/с, 23,976 fps, 1920x1080
Аудио: Русский AC3, 2 ch, 192 Кбит/с

Формат 3D: Half SideBySide / Горизонтальная анаморфная стереопара (16:9) [3DCombine]
Порядок ракурсов: Левый-Первый
Полное имя : E:\AV\Formula.love.3D.mkv
Формат : Matroska
Версия формата : Version 4 / Version 2
Размер файла : 8,26 Гбайт
Продолжительность : 1 ч. 30 м.
Общий поток : 13,1 Мбит/сек
Программа кодирования : mkvmerge v7.1.0 ('Good Love') 64bit
Библиотека кодирования : libebml v1.3.0 + libmatroska v1.4.1
DURATION : 01:30:10.947000000

Видео
Идентификатор : 1
Формат : AVC
Формат/Информация : Advanced Video Codec
Профиль формата : High@L4.1
Параметр CABAC формата : Да
Параметр ReFrames формата : 4 кадра
Идентификатор кодека : V_MPEG4/ISO/AVC
Продолжительность : 1 ч. 30 м.
Битрейт : 13,0 Мбит/сек
Ширина : 1920 пикселей
Высота : 1080 пикселей
Соотношение сторон : 16:9
Режим частоты кадров : Постоянный
Частота кадров : 23,976 кадра/сек
Цветовое пространство : YUV
Субдискретизация насыщенности : 4:2:0
Битовая глубина : 8 бит
Тип развёртки : Прогрессивная
Бит/(Пиксели*Кадры) : 0.261
Размер потока : 7,97 Гбайт (97%)
Библиотека кодирования : x264 core 159 mrdtu
Default : Да
Forced : Нет

Аудио
Идентификатор : 2
Формат : AC-3
Формат/Информация : Audio Coding 3
Расширение режима : CM (complete main)
Параметр Endianness формата : Big
Идентификатор кодека : A_AC3
Продолжительность : 1 ч. 30 м.
Вид битрейта : Постоянный
Битрейт : 192 Кбит/сек
Каналы : 2 канала
Расположение каналов : Front: L R
Частота : 48,0 КГц
Битовая глубина : 16 бит
Размер потока : 124 Мбайт (1%)
Язык : Russian
Default : Да
Forced : Нет

Информация о торренте
Торрент:  Зарегистрирован [07 мар 2017, 09:37] Для скачивания необходимо Зарегистрироваться!



Если Вы уже зарегистрированы, то авторизуйтесь на трекере!
Статус:  
Размер:  8.26 ГБ (8 868 410 117 байт)
Приватный:  Нет (DHT включён)
Хэш:  b174d3b65a63bca3899e
9cd3c7f7ad8c958ac83d
Здоровье:  100%
.torrent скачан:  5
Как тут качать  Правила, основные инструкции, FAQ-и



_________________


 Профиль  
 
Показать сообщения за:  Поле сортировки  
Начать новую тему Ответить на тему  [ 1 сообщение ] 


Кто сейчас на трекере

Сейчас этот форум просматривают: нет зарегистрированных пользователей и гости: 1


Вы не можете начинать темы
Вы не можете отвечать на сообщения
Вы не можете редактировать свои сообщения
Вы не можете удалять свои сообщения
Вы не можете добавлять вложения

Найти:


Правообладателям

!ВНИМАНИЕ!
Ресурс не предоставляет электронные версии произведений, а занимается лишь коллекционированием и каталогизацией ссылок, присылаемых и публикуемых на форуме нашими читателями. Если вы являетесь правообладателем какого-либо представленного материала и не желаете чтобы ссылка на него находилась в нашем каталоге, свяжитесь с нами и мы незамедлительно удалим её. Файлы для обмена на трекере предоставлены пользователями сайта, и администрация не несёт ответственности за их содержание. Просьба не заливать файлы, защищенные авторскими правами, а также файлы нелегального содержания!
cron
Вверх страницы
Вниз страницы
ppkBB3cker v.2 © 2008-2011 @ PPK