3d-tracker.ru • Просмотр темы - Дежа Вю / 3D (1989) [2d->3D, BDRip, 1080p, Half Side-by-Side / Горизонтальная анаморфная пара]

Регистрация Имя: Пароль: Запомнить Забыли пароль?



Правила форума





Начать новую тему Ответить на тему  [ 1 сообщение ] 
Статистика раздачи
Размер: 6.25 ГБ | Зарегистрирован: 09 мар 2017, 10:37 | .torrent скачан: 10
Сиды: 2 [0 байт/сек]    Личи: 3 [0 байт/сек]
Автор Сообщение
 СообщениеДобавлено: 09 мар 2017, 10:37 
Не в сети
Супермодератор
Аватара пользователя
Зарегистрирован: 15 апр 2014, 21:21
Торренты: 519
Раздал: 35.89 ТБ 
Скачал: 1.83 ТБ 
Ратио: 30.676
Спасибо: 3008 / 212
Сообщения: 685
Комментарии: 311
Откуда: РОССИЯ, ЦФО


Оригинальное название: Дежа Вю
Год выпуска: 1989
Жанр: Комедия
Выпущено: СССР, ПНР, Одесская киностудия, Студия Фильмов Зебра

Режиссер: Юлиуш Махульский
В ролях: Ежи Штур, Владимир Головин, Николай Караченцов, Галина Петрова, Олег Шкловский, Василий Мищенко, Елизавета Махульская, Всеволод Сафонов, Владимир Белоусов, Виталий Шаповалов, Ашот Хостикян, Виктор Степанов, Никита Высоцкий, Виктор Павловский, Эрнест Штейнберг, Павел Новиш, Ян Хенч, Гжегож Хероминьский
О фильме: Maфия чикaгcкиx пoдпoльныx - в эпoxy cyxoгo зaкoнa - тopгoвцeв cпиpтным (бyтлeгepoв) пoтepпeлa eдвa ли нe кpax из-зa пpeдaтeльcтвa Mиккa Hичa. Teпepь eгo дoлжeн yничтoжить киллep, кoтopый дoбиpaeтcя aж дo Oдeccы, гдe Mикитa Hичипopyк (бывший Hич) oткpыл "вeликий caмoгoнный пyть". Aмepикaнcкий гaнгcтep Пoллaк ищeт пpeдaтeля в кипyчeм гopoдe, пpeбывaющeм в зaгyлe HЭПa (нoвoй экoнoмичecкoй пoлитики), и cтaнoвитcя... пoчeтным гocтeм coвeтcкoй Poccии... Пpиcпeшники Mикиты oбъявляют aмepикaнцy вoйнy, a oн, "зaдyшeнный" гocтeпpиимcтвoм, зaмyчeнный paccтpoйcтвoм пcиxики, cдaeтcя чeкиcтaм...

Продолжительность: 01:40:35
Язык: Русский
Размер: 6.25 ГБ

Качество: BDRip (1080p)
Видео: 1920x1080, ~8300 Кбит/сек, 23,976 кадра/сек
Звук: AC3; 48,0 КГц; 384 kбит/сек; 6 ch

Формат 3D: Half SideBySide / Гоизонтальнаая анаморфная стереопара (16:9)
Порядок ракурсов: левый-первый
Полное имя : E:\AV\Dezha-vuy.3D.mkv
Формат : Matroska
Версия формата : Version 4 / Version 2
Размер файла : 6,25 Гбайт
Продолжительность : 1 ч. 40 м.
Общий поток : 8893 Кбит/сек
Программа кодирования : mkvmerge v7.1.0 ('Good Love') 64bit
Библиотека кодирования : libebml v1.3.0 + libmatroska v1.4.1
DURATION : 01:40:35.071000000


Видео
Идентификатор : 1
Формат : AVC
Формат/Информация : Advanced Video Codec
Профиль формата : High@L4.0
Параметр CABAC формата : Да
Параметр ReFrames формата : 2 кадра
Параметр GOP формата : M=3, N=18
Идентификатор кодека : V_MPEG4/ISO/AVC
Продолжительность : 1 ч. 40 м.
Битрейт : 8332 Кбит/сек
Ширина : 1920 пикселей
Высота : 1080 пикселей
Соотношение сторон : 16:9
Режим частоты кадров : Постоянный
Частота кадров : 23,976 кадра/сек
Цветовое пространство : YUV
Субдискретизация насыщенности : 4:2:0
Битовая глубина : 8 бит
Тип развёртки : Прогрессивная
Бит/(Пиксели*Кадры) : 0.168
Размер потока : 5,85 Гбайт (94%)
Язык : English
Default : Да
Forced : Нет

Аудио
Идентификатор : 2
Формат : AC-3
Формат/Информация : Audio Coding 3
Расширение режима : CM (complete main)
Параметр Endianness формата : Big
Идентификатор кодека : A_AC3
Продолжительность : 1 ч. 40 м.
Вид битрейта : Постоянный
Битрейт : 384 Кбит/сек
Каналы : 6 каналов
Расположение каналов : Front: L C R, Side: L R, LFE
Частота : 48,0 КГц
Битовая глубина : 16 бит
Размер потока : 276 Мбайт (4%)
Язык : Russian
Default : Да
Forced : Нет

Информация о торренте
Торрент:  Зарегистрирован [09 мар 2017, 10:37] Для скачивания необходимо Зарегистрироваться!



Если Вы уже зарегистрированы, то авторизуйтесь на трекере!
Статус:  
Размер:  6.25 ГБ (6 708 520 088 байт)
Приватный:  Нет (DHT включён)
Хэш:  7bc7671ed5918273a5d3
9c84e4b5d671115c38e0
Здоровье:  66%
.torrent скачан:  10
Как тут качать  Правила, основные инструкции, FAQ-и



_________________


 Профиль  
 
Показать сообщения за:  Поле сортировки  
Начать новую тему Ответить на тему  [ 1 сообщение ] 


Кто сейчас на трекере

Сейчас этот форум просматривают: нет зарегистрированных пользователей и гости: 1


Вы не можете начинать темы
Вы не можете отвечать на сообщения
Вы не можете редактировать свои сообщения
Вы не можете удалять свои сообщения
Вы не можете добавлять вложения

Найти:


Правообладателям

!ВНИМАНИЕ!
Ресурс не предоставляет электронные версии произведений, а занимается лишь коллекционированием и каталогизацией ссылок, присылаемых и публикуемых на форуме нашими читателями. Если вы являетесь правообладателем какого-либо представленного материала и не желаете чтобы ссылка на него находилась в нашем каталоге, свяжитесь с нами и мы незамедлительно удалим её. Файлы для обмена на трекере предоставлены пользователями сайта, и администрация не несёт ответственности за их содержание. Просьба не заливать файлы, защищенные авторскими правами, а также файлы нелегального содержания!
cron
Вверх страницы
Вниз страницы
ppkBB3cker v.2 © 2008-2011 @ PPK