3d-tracker.ru • Просмотр темы - Блокбастер 3D / Box Office 3D

Регистрация Имя: Пароль: Запомнить Забыли пароль?



Правила форума





Начать новую тему Ответить на тему  [ Сообщений: 2 ] 
Статистика раздачи
Размер: 7.3 ГБ | Зарегистрирован: 13 сен 2012, 17:58 | .torrent скачан: 83
Сиды: 59 [0 байт/сек]    Личи: 27 [0 байт/сек]
Автор Сообщение
 СообщениеДобавлено: 13 сен 2012, 17:58 
Не в сети
гуру
Аватара пользователя
Зарегистрирован: 02 янв 2012, 21:30
Торренты: 180
Раздал: 36.49 ТБ 
Скачал: 9.77 ТБ 
Ратио: 3.734
Спасибо: 3337 / 73
Сообщения: 276
Комментарии: 95
Откуда: Рязань

Оригинальное название: Box Office 3D
Страна: Италия / Mondo Home Entertainment, Talents Factory
Продолжительность: 01:42:00
Дата выхода: 2011
Жанр: комедия
Режиссёр: Эцио Греджо
В ролях: Алессандро Бьянчи, Анна Фальчи, Джина Лоллобриджида, Матильда Дондена, Антонелло Фассари
О фильме: Что будет если все самые громкие фильмы последних лет собрать в один фильм? Да еще и в 3D? Правильно! Получится фильм Блокбастер 3D!
Вы встретитесь с профессором Козлонгом — специалистом по символам, которому предстоит раскрыть похищение из Лувра самой бездарной картины «Старый пьяница».
Вместе с Лиз Саламандер, девушкой с татуировкой дракона на мягком месте, ему предстоит проникнуть в секреты церкви Тухлого яйца и раскрыть код старого пьяницы.
Вы также встретитесь с Минимусом — командующим легионами Рима, который вышел за хлебом а вернулся через шесть лет, за которые жена успела родить ему троих детей.

Вы побываете на планете Виагратар, чьи плоды помогают усилить во сто крат мужскую силу, станете свидетелем тихой войнушки на борту подводной лодки стреляющей вместо торпед вантузом, отправитесь на последнее задание вместе со спецагентом 070, станете жертвой вампира на съемках фильма Сцумерки, увидите как познакомятся Харри Сфоттер, Ронц Спизли и Фродоло из футбольной команды Средиземья и узнаете, наконец, кто же замочил последнего крестного отца!


Релиз:







MediaInfo: Format : Matroska
Format version : Version 2
File size : 7.30 GiB
Duration : 1h 42mn
Overall bit rate : 10.2 Mbps
Encoded date : UTC 2012-09-11 20:19:22
Writing application : mkvmerge v4.0.0 ('The Stars were mine') сборка от Jun 6 2010 16:18:42
Writing library : libebml v1.0.0 + libmatroska v1.0.0

Video
ID : 1
Format : AVC
Format/Info : Advanced Video Codec
Format profile : High@L4.0
Format settings, CABAC : Yes
Format settings, ReFrames : 4 frames
Format settings, GOP : M=4, N=8
Codec ID : V_MPEG4/ISO/AVC
Duration : 1h 42mn
Bit rate : 10 000 Kbps
Width : 1 920 pixels
Height : 1 080 pixels
Display aspect ratio : 16:9
Frame rate mode : Variable
Frame rate : 23.976 fps
Color space : YUV
Chroma subsampling : 4:2:0
Bit depth : 8 bits
Scan type : Progressive
Bits/(Pixel*Frame) : 0.201
Stream size : 6.83 GiB (94%)
Writing library : x264 core 107 r1745 4785e8e
Encoding settings : cabac=1 / ref=3 / deblock=1:0:0 / analyse=0x3:0x113 / me=hex / subme=7 / psy=1 / psy_rd=1.00:0.00 / mixed_ref=1 / me_range=16 / chroma_me=1 / trellis=1 / 8x8dct=1 / cqm=0 / deadzone=21,11 / fast_pskip=1 / chroma_qp_offset=-2 / threads=6 / sliced_threads=0 / nr=0 / decimate=1 / interlaced=0 / constrained_intra=0 / bframes=3 / b_pyramid=2 / b_adapt=1 / b_bias=0 / direct=1 / weightb=1 / open_gop=0 / weightp=2 / keyint=250 / keyint_min=25 / scenecut=40 / intra_refresh=0 / rc_lookahead=40 / rc=abr / mbtree=1 / bitrate=10000 / ratetol=1.0 / qcomp=0.60 / qpmin=10 / qpmax=51 / qpstep=4 / ip_ratio=1.41 / aq=1:1.00

Audio
ID : 2
Format : AC-3
Format/Info : Audio Coding 3
Mode extension : CM (complete main)
Codec ID : A_AC3
Duration : 1h 42mn
Bit rate mode : Constant
Bit rate : 448 Kbps
Channel(s) : 6 channels
Channel positions : Front: L C R, Side: L R, LFE
Sampling rate : 48.0 KHz
Bit depth : 16 bits
Compression mode : Lossy
Stream size : 327 MiB (4%)

Перевод: Профессиональный (многоголосный)
Контейнер: mkv
Формат аудио: AC3
Язык 1: русский
Формат видео: x264
Качество видео: HDrip
Размер видео: 1920×1080
формат 3D: Half SideBySide / Горизонтальная анаморфная стереопара
Информация о торренте
Торрент:  Зарегистрирован [13 сен 2012, 17:58] Для скачивания необходимо Зарегистрироваться!



Если Вы уже зарегистрированы, то авторизуйтесь на трекере!
Статус:  
Размер:  7.3 ГБ (7 837 667 873 байт)
Приватный:  Нет (DHT включён)
Хэш:  b87f98cdd3983e68f634
7f2037f27c6783136fcb
Здоровье:  100%
.torrent скачан:  83
Как тут качать  Правила, основные инструкции, FAQ-и



_________________

Мои раздачи


 Профиль  
 
 СообщениеДобавлено: 23 сен 2012, 09:36 
Не в сети
заглянувший
Зарегистрирован: 22 сен 2012, 18:26
Торренты: 0
Раздал: 5 ГБ 
Скачал: 0 байт 
Ратио: None.
Спасибо: 0 / 0
Сообщения: 1
Комментарии: 1
Дааа... Выкрутился оч прикольно


 Профиль  
 
Показать сообщения за:  Поле сортировки  
Начать новую тему Ответить на тему  [ Сообщений: 2 ] 


Кто сейчас на трекере

Сейчас этот форум просматривают: нет зарегистрированных пользователей и гости: 2


Вы не можете начинать темы
Вы не можете отвечать на сообщения
Вы не можете редактировать свои сообщения
Вы не можете удалять свои сообщения
Вы не можете добавлять вложения

Найти:


Правообладателям

!ВНИМАНИЕ!
Ресурс не предоставляет электронные версии произведений, а занимается лишь коллекционированием и каталогизацией ссылок, присылаемых и публикуемых на форуме нашими читателями. Если вы являетесь правообладателем какого-либо представленного материала и не желаете чтобы ссылка на него находилась в нашем каталоге, свяжитесь с нами и мы незамедлительно удалим её. Файлы для обмена на трекере предоставлены пользователями сайта, и администрация не несёт ответственности за их содержание. Просьба не заливать файлы, защищенные авторскими правами, а также файлы нелегального содержания!
cron
Вверх страницы
Вниз страницы
ppkBB3cker v.2 © 2008-2011 @ PPK