3d-tracker.ru • Просмотр темы - Самый страшный фильм 3D / Dead Before Dawn 3D [2012, HDTV 1080i, Anamorph SideBySide]

Регистрация Имя: Пароль: Запомнить Забыли пароль?



Правила форума





Начать новую тему Ответить на тему  [ Сообщений: 6 ] 
Статистика раздачи
Размер: 4.29 ГБ | Зарегистрирован: 24 фев 2013, 16:45 | .torrent скачан: 39
Сиды: 37 [0 байт/сек]    Личи: 7 [0 байт/сек]
Автор Сообщение
 СообщениеДобавлено: 24 фев 2013, 16:54 
Не в сети
Опытный
Зарегистрирован: 05 окт 2012, 01:30
Торренты: 57
Раздал: 18.97 ТБ 
Скачал: 1.67 ТБ 
Ратио: 11.329
Спасибо: 923 / 13
Сообщения: 61
Комментарии: 12
Откуда: Киев

Оригинальное название: Dead Before Dawn 3D
Страна: Канада
Продолжительность: 01:24:45
Дата выхода: 2012
Жанр: Ужасы, комедия
Режиссёр: Эйприл Маллен / April Mullen
В ролях: Девон Бостик, Кристофер Ллойд, Марта МакАйсак, Брэндон Джей МакЛарен,
О фильме: Комедийная пародия на фильмы о зомби. Оставшись за главного в лавке древностей, принадлежащей его деду, Каспер, и его друзья по колледжу, случайно разбивают старинный артефакт и обрушивают себе на голову древнее проклятье. Теперь, стоит им только взглянуть на кого-нибудь, как тот убивает себя, а потом воскресает зомбаком! Пока друзья разбирались в чем тут дело, половина города успела превратится в зомби. Зомбаками стали даже ребята из сборной колледжа по футболу и девчонки из группы поддержки. Теперь друзьям необходимо срочно найти способ снять проклятье. Это будет нелегко, но зато очень круто и дико смешно!





MediaInfo: Dead Before Dawn (3D)2012.halfSBS (Solaris).ts
Формат : MPEG-TS
Размер файла : 4,29 Гбайт
Продолжительность : 1 ч. 24 м.
Режим общего битрейта : Переменный
Общий поток : 7240 Кбит/сек
Максимальный общий битрейт : 35,5 Мбит/сек

Видео
Идентификатор : 4113 (0x1011)
Идентификатор меню : 1 (0x1)
Формат : AVC
Формат/Информация : Advanced Video Codec
Профиль формата : Main@L4.0
Параметр CABAC формата : Да
Параметр ReFrames формата : 3 кадра
Идентификатор кодека : 27
Продолжительность : 1 ч. 24 м.
Вид битрейта : Переменный
Битрейт : 6429 Кбит/сек
Максимальный битрейт : 40,0 Мбит/сек
Ширина : 1920 пикселей
Высота : 1080 пикселей
Соотношение сторон : 16:9
Частота кадров : 25,000 кадров/сек
Стандарт вещания : Component
Цветовое пространство : YUV
Субдискретизация насыщенности : 4:2:0
Битовая глубина : 8 бит
Тип развёртки : Чересстрочная
Порядок развёртки : Верхнее поле первое
Бит/(Пиксели*Кадры) : 0.124
Размер потока : 3,81 Гбайт (89%)
Основные цвета : BT.709-5, BT.1361, IEC 61966-2-4, SMPTE RP177
Характеристики трансфера : BT.709-5, BT.1361
Коэффициенты матрицы : BT.709-5, BT.1361, IEC 61966-2-4 709, SMPTE RP177

Аудио
Идентификатор : 4352 (0x1100)
Идентификатор меню : 1 (0x1)
Формат : AC-3
Формат/Информация : Audio Coding 3
Расширение режима : CM (complete main)
Параметр Endianness формата : Big
Идентификатор кодека : 129
Продолжительность : 1 ч. 24 м.
Вид битрейта : Постоянный
Битрейт : 448 Кбит/сек
Каналы : 2 канала
Расположение каналов : Front: L R
Частота : 48,0 КГц
Битовая глубина : 16 бит
Метод сжатия : С потерями
Задержка видео : -215 мс.
Размер потока : 272 Мбайт (6%)
Язык : Russian





Перевод: Профессиональный (полное дублирование)
Контейнер: TS
Формат аудио: AC3
Язык 1: русский
Формат видео: MPEG-TS
Качество видео: HDTV 1080i
Размер видео: 1920×1080
формат 3D: Anamorph SideBySide / Горизонтальная анаморфная стереопара
Информация о торренте
Торрент:  Зарегистрирован [24 фев 2013, 16:45] Для скачивания необходимо Зарегистрироваться!



Если Вы уже зарегистрированы, то авторизуйтесь на трекере!
Статус:   изменил Xamjiit (24 фев 2013, 19:36)
Размер:  4.29 ГБ (4 601 973 416 байт)
Приватный:  Нет (DHT включён)
Хэш:  b6880b6842fe09ec5657
2e0b8d92fef2448799de
Здоровье:  100%
.torrent скачан:  39
Как тут качать  Правила, основные инструкции, FAQ-и




 Профиль  
 
 СообщениеДобавлено: 27 фев 2013, 13:01 
Не в сети
заглянувший
Зарегистрирован: 06 янв 2013, 14:25
Торренты: 0
Раздал: 4.33 ТБ 
Скачал: 291.62 ГБ 
Ратио: 15.202
Спасибо: 0 / 48
Сообщения: 7
Комментарии: 7
На встроенном тв-плейере LG будет показывать?


 Профиль  
 
 СообщениеДобавлено: 27 фев 2013, 14:57 
Не в сети
Опытный
Зарегистрирован: 05 окт 2012, 01:30
Торренты: 57
Раздал: 18.97 ТБ 
Скачал: 1.67 ТБ 
Ратио: 11.329
Спасибо: 923 / 13
Сообщения: 61
Комментарии: 12
Откуда: Киев
На LG не знаю,а на встроенном плеере samsung 6100 показывает без проблем.


 Профиль  
 
 СообщениеДобавлено: 27 фев 2013, 18:20 
Не в сети
Опытный
Аватара пользователя
Зарегистрирован: 11 авг 2012, 01:47
Торренты: 0
Раздал: 170.03 ГБ 
Скачал: 857.07 ГБ 
Ратио: 0.198
Спасибо: 0 / 0
Сообщения: 61
Комментарии: 40
На LG показывает, только лучше не перематывать, а то зависает. И вообще я бы не советовал его качать, чушь редчайшая, ни разу даже не улыбнулся, не то что засмеялся....


 Профиль  
 
 СообщениеДобавлено: 27 фев 2013, 22:59 
Не в сети
Опытный
Аватара пользователя
Зарегистрирован: 02 мар 2012, 21:37
Торренты: 0
Раздал: 392.75 ГБ 
Скачал: 116.31 ГБ 
Ратио: 3.877
Спасибо: 0 / 205
Сообщения: 64
Комментарии: 71
"Самый страшный" рейтинг. Качать мышка не поднимается, а раздающему за труды спасибо!


 Профиль  
 
 СообщениеДобавлено: 14 ноя 2013, 14:22 
Не в сети
Опытный
Зарегистрирован: 15 авг 2013, 17:26
Торренты: 0
Раздал: 1.2 ТБ 
Скачал: 180.98 ГБ 
Ратио: 6.898
Спасибо: 0 / 240
Сообщения: 98
Комментарии: 100
немного подвисает.


 Профиль  
 
Показать сообщения за:  Поле сортировки  
Начать новую тему Ответить на тему  [ Сообщений: 6 ] 


Кто сейчас на трекере

Сейчас этот форум просматривают: нет зарегистрированных пользователей и гости: 3


Вы не можете начинать темы
Вы не можете отвечать на сообщения
Вы не можете редактировать свои сообщения
Вы не можете удалять свои сообщения
Вы не можете добавлять вложения

Найти:


Правообладателям

!ВНИМАНИЕ!
Ресурс не предоставляет электронные версии произведений, а занимается лишь коллекционированием и каталогизацией ссылок, присылаемых и публикуемых на форуме нашими читателями. Если вы являетесь правообладателем какого-либо представленного материала и не желаете чтобы ссылка на него находилась в нашем каталоге, свяжитесь с нами и мы незамедлительно удалим её. Файлы для обмена на трекере предоставлены пользователями сайта, и администрация не несёт ответственности за их содержание. Просьба не заливать файлы, защищенные авторскими правами, а также файлы нелегального содержания!
cron
Вверх страницы
Вниз страницы
ppkBB3cker v.2 © 2008-2011 @ PPK