3d-tracker.ru • Просмотр темы - Джеймс понт 3D / Torrente 4 : Lethal Crisis 3D (Anamorph SideBySide)

Регистрация Имя: Пароль: Запомнить Забыли пароль?



Правила форума





Начать новую тему Ответить на тему  [ Сообщений: 2 ] 
Статистика раздачи
Размер: 8.09 ГБ | Зарегистрирован: 26 мар 2013, 04:03 | .torrent скачан: 55
Сиды: 24 [0 байт/сек]    Личи: 6 [0 байт/сек]
Автор Сообщение
 СообщениеДобавлено: 24 мар 2013, 19:38 
Не в сети
Опытный
Зарегистрирован: 05 окт 2012, 01:30
Торренты: 57
Раздал: 18.97 ТБ 
Скачал: 1.67 ТБ 
Ратио: 11.329
Спасибо: 923 / 13
Сообщения: 61
Комментарии: 12
Откуда: Киев

Оригинальное название: Torrente 4 : Lethal Crisis 3D
Страна: Испания
Продолжительность: 01:36:44
Дата выхода: 2011
Жанр: Комедия, боевик
Режиссёр: Сантьяго Сегура
В ролях: Сантьяго Сегура, Карлос Арэсес, Гойо Хименес, Хавьер Гутиеррез, Эрнесто Севилья, Мария Лапьедра, Франциско, Томаш Поцци, Кико Ривера, Долорес Гонзалез, Сильвия Абрил, Хосе Мария Рубио, Энрике Вийен, Дэвид Кастилло
О фильме:Похождения любимого народного героя и циничного подонка в одном лице. Как обычно, много простого и понятного юмора ниже пояса, много шуток про медийных персонажей, которые сами охотно снимаются в эпизодах.





MediaInfo: Torrente 4 Lethal Crisis 3D Half-SBS.mkv
Формат : Matroska
Версия формата : Version 2
Размер файла : 8,09 Гбайт
Продолжительность : 1 ч. 36 м.
Общий поток : 12,0 Мбит/сек
Название фильма : Torrente 4 3D Half-SBS
Дата кодирования : UTC 2012-06-07 14:24:05
Программа кодирования : mkvmerge v4.4.0 ('Die Wiederkehr') сборка от Oct 31 2010 21:52:48
Библиотека кодирования : libebml v1.0.0 + libmatroska v1.0.0

Видео
Идентификатор : 1
Формат : AVC
Формат/Информация : Advanced Video Codec
Профиль формата : High@L4.1
Параметр CABAC формата : Да
Параметр ReFrames формата : 2 кадра
Идентификатор кодека : V_MPEG4/ISO/AVC
Продолжительность : 1 ч. 36 м.
Битрейт : 9843 Кбит/сек
Ширина : 1920 пикселей
Высота : 1080 пикселей
Соотношение сторон : 16:9
Частота кадров : 23,976 кадра/сек
Цветовое пространство : YUV
Субдискретизация насыщенности : 4:2:0
Битовая глубина : 8 бит
Тип развёртки : Прогрессивная
Бит/(Пиксели*Кадры) : 0.198
Размер потока : 6,65 Гбайт (82%)
Библиотека кодирования : x264 core
Default : Да
Forced : Нет
Основные цвета : BT.709-5, BT.1361, IEC 61966-2-4, SMPTE RP177
Характеристики трансфера : BT.709-5, BT.1361
Коэффициенты матрицы : BT.709-5, BT.1361, IEC 61966-2-4 709, SMPTE RP177

Аудио #1
Идентификатор : 2
Формат : AC-3
Формат/Информация : Audio Coding 3
Расширение режима : CM (complete main)
Параметр Endianness формата : Big
Идентификатор кодека : A_AC3
Продолжительность : 1 ч. 36 м.
Вид битрейта : Постоянный
Битрейт : 384 Кбит/сек
Каналы : 6 каналов
Расположение каналов : Front: L C R, Side: L R, LFE
Частота : 48,0 КГц
Битовая глубина : 16 бит
Метод сжатия : С потерями
Задержка видео : 6 мс.
Размер потока : 266 Мбайт (3%)
Default : Да
Forced : Нет

Аудио #2
Идентификатор : 3
Формат : DTS
Формат/Информация : Digital Theater Systems
Профиль формата : ES
Идентификатор кодека : A_DTS
Продолжительность : 1 ч. 36 м.
Вид битрейта : Постоянный
Битрейт : 1510 Кбит/сек
Каналы : 6 каналов
Расположение каналов : Front: L C R, Side: L R, LFE
Частота : 48,0 КГц
Битовая глубина : 16 бит
Метод сжатия : С потерями
Задержка видео : 11 мс.
Размер потока : 1,02 Гбайт (13%)
Язык : Spanish
Default : Нет
Forced : Нет

Меню
00:00:00.000 : en:(01)00:00:00:000
00:07:54.307 : en:(02)00:07:54:307
00:10:25.333 : en:(03)00:10:25:333
00:13:31.352 : en:(04)00:13:31:352
00:17:19.288 : en:(05)00:17:19:288
00:21:16.566 : en:(06)00:21:16:566
00:23:39.501 : en:(07)00:23:39:501
00:28:12.607 : en:(08)00:28:12:607
00:34:07.336 : en:(09)00:34:07:336
00:40:38.102 : en:(10)00:40:38:102
00:43:46.915 : en:(11)00:43:46:915
00:47:59.084 : en:(12)00:47:59:084
00:51:51.191 : en:(13)00:51:51:191
00:55:15.895 : en:(14)00:55:15:895
01:01:06.788 : en:(15)01:01:06:788
01:05:52.573 : en:(16)01:05:52:573
01:09:41.135 : en:(17)01:09:41:135
01:15:49.545 : en:(18)01:15:49:545
01:20:15.602 : en:(19)01:20:15:602
01:25:10.688 : en:(20)01:25:10:688
01:31:05.460 : en:(21)01:31:05:460






Проверено: SAMSUNG UE 40D 6100

ВНИМАНИЕ !!! (Присутствуют эротические сцены и МАТ)


Перевод: Любительский (одноголосый)
Контейнер: mkv
Язык 1: Russian AC-3 , 384 Kb/s , 5.1ch
Язык 2: Spanish DTS , 1510 Kb/s , 5.1ch
Формат видео: x264
Качество видео: BDrip
Размер видео: 1920×1080
формат 3D: Half SideBySide / Горизонтальная анаморфная стереопара
Информация о торренте
Торрент:  Зарегистрирован [26 мар 2013, 04:03] Для скачивания необходимо Зарегистрироваться!



Если Вы уже зарегистрированы, то авторизуйтесь на трекере!
Статус:   изменил IgorekSh (02 ноя 2013, 20:57)
Размер:  8.09 ГБ (8 688 227 887 байт)
Приватный:  Нет (DHT включён)
Хэш:  74c9af6e4beda3856b78
2818063150150b4fcb56
Здоровье:  100%
.torrent скачан:  55
Как тут качать  Правила, основные инструкции, FAQ-и




 Профиль  
 
 СообщениеДобавлено: 14 ноя 2013, 14:20 
Не в сети
Опытный
Зарегистрирован: 15 авг 2013, 17:26
Торренты: 0
Раздал: 1.2 ТБ 
Скачал: 180.98 ГБ 
Ратио: 6.898
Спасибо: 0 / 240
Сообщения: 98
Комментарии: 100
можно разок глянуть.


 Профиль  
 
Показать сообщения за:  Поле сортировки  
Начать новую тему Ответить на тему  [ Сообщений: 2 ] 


Кто сейчас на трекере

Сейчас этот форум просматривают: нет зарегистрированных пользователей и гости: 4


Вы не можете начинать темы
Вы не можете отвечать на сообщения
Вы не можете редактировать свои сообщения
Вы не можете удалять свои сообщения
Вы не можете добавлять вложения

Найти:


Правообладателям

!ВНИМАНИЕ!
Ресурс не предоставляет электронные версии произведений, а занимается лишь коллекционированием и каталогизацией ссылок, присылаемых и публикуемых на форуме нашими читателями. Если вы являетесь правообладателем какого-либо представленного материала и не желаете чтобы ссылка на него находилась в нашем каталоге, свяжитесь с нами и мы незамедлительно удалим её. Файлы для обмена на трекере предоставлены пользователями сайта, и администрация не несёт ответственности за их содержание. Просьба не заливать файлы, защищенные авторскими правами, а также файлы нелегального содержания!
cron
Вверх страницы
Вниз страницы
ppkBB3cker v.2 © 2008-2011 @ PPK