3d-tracker.ru • Просмотр темы - Логан в 3Д / Logan 3D (2017) [BDRip, 1080p, Zoom Half OverUnder / Вертикальная анаморфная пара на весь экран]

Регистрация Имя: Пароль: Запомнить Забыли пароль?



Правила форума





Начать новую тему Ответить на тему  [ Сообщений: 3 ] 
Статистика раздачи
Размер: 8.37 ГБ | Зарегистрирован: 13 окт 2017, 20:47 | .torrent скачан: 55
Сиды: 18 [0 байт/сек]    Личи: 5 [0 байт/сек]
Автор Сообщение
 СообщениеДобавлено: 13 окт 2017, 20:47 
Не в сети
Бывалый
Зарегистрирован: 07 июн 2014, 08:13
Торренты: 70
Раздал: 2.18 ТБ 
Скачал: 1.07 ТБ 
Ратио: 2.034
Спасибо: 301 / 651
Сообщения: 178
Комментарии: 174

Название: Логан
Оригинальное название: Logan
Год выхода: 2017
Жанр: Фантастика, боевик, триллер, драма

Режиссер: Джеймс Мэнголд
В ролях: Хью Джекман, Патрик Стюарт, Дафни Кин, Бойд Холбрук, Стивен Мерчант, Элизабет Родригес, Ричард Э. Грант, Эрик Ла Салль, Элиз Нил, Куинси Фаус
О фильме: В недалеком будущем уставший от жизни Логан заботится о больном профессоре Икс, который прячется неподалеку от мексиканской границы. Но Логан больше не сможет скрывать свое прошлое, когда встретится с юным мутантом, которого преследуют темные силы.

Страна: США
Студия: 20th Century Fox Film Corporation, Marvel Entertainment
Продолжительность: 02:10:04
Перевод: Дублированный | BD EUR

Качество: BDRip (1080p)
Видео: AVC, 1920x1080, ~8600 kbit/s, 23.976 fps
Аудио: 48 kHz, AC3, 5.1, 448 Kbps | Дублированный
Размер: 8,37 Гб

Формат 3D: Zoom Half OverUnder / Вертикальная анаморфная стереопара (16:9)
Порядок ракурсов: Левый-первый
Полное имя : F:\AiV\Logan.2017.3d.mkv
Формат : Matroska
Версия формата : Version 4 / Version 2
Размер файла : 8,37 Гбайт
Программа кодирования : mkvmerge v8.3.0 ('Over the Horizon') 64bit
Библиотека кодирования : libebml v1.3.1 + libmatroska v1.4.2
DURATION : 02:10:03.922000000

Видео
Идентификатор : 1
Формат : AVC
Формат/Информация : Advanced Video Codec
Профиль формата : High@L4.0
Параметр CABAC формата : Да
Параметр ReFrames формата : 2 кадра
Идентификатор кодека : V_MPEG4/ISO/AVC
Битрейт : 8576 Кбит/сек
Ширина : 1920 пикселей
Высота : 1080 пикселей
Соотношение сторон : 16:9
Режим частоты кадров : Постоянный
Частота кадров : 23,976 кадра/сек
Цветовое пространство : YUV
Субдискретизация насыщенности : 4:2:0
Битовая глубина : 8 бит
Тип развёртки : Прогрессивная
Бит/(Пиксели*Кадры) : 0.173
Размер потока : 7,79 Гбайт (93%)
Язык : English
Default : Да
Forced : Нет

Аудио
Идентификатор : 2
Формат : AC-3
Формат/Информация : Audio Coding 3
Расширение режима : CM (complete main)
Параметр Endianness формата : Big
Идентификатор кодека : A_AC3
Вид битрейта : Постоянный
Битрейт : 448 Кбит/сек
Каналы : 6 каналов
Расположение каналов : Front: L C R, Side: L R, LFE
Частота : 48,0 КГц
Битовая глубина : 16 бит
Размер потока : 417 Мбайт (5%)
Язык : Russian
Default : Да
Forced : Нет

Информация о торренте
Торрент:  Зарегистрирован [13 окт 2017, 20:47] Для скачивания необходимо Зарегистрироваться!



Если Вы уже зарегистрированы, то авторизуйтесь на трекере!
Статус:   изменил Soldat (13 окт 2017, 22:31)
Размер:  8.37 ГБ (8 981 982 489 байт)
Приватный:  Нет (DHT включён)
Хэш:  bb4e61fc556a9f3f79cc
d9b592fdd7eed38cd53c
Здоровье:  100%
.torrent скачан:  55
Как тут качать  Правила, основные инструкции, FAQ-и




 Профиль  
 
 СообщениеДобавлено: 26 фев 2018, 13:53 
Не в сети
заглянувший
Зарегистрирован: 26 фев 2018, 13:47
Торренты: 0
Раздал: 5 ГБ 
Скачал: 0 байт 
Ратио: None.
Спасибо: 0 / 0
Сообщения: 1
Комментарии: 1
Это не 3d. Это дублирование программой экрана. Работаю с 3д 3 года и уж могу отличить по скринам.


 Профиль  
 
 СообщениеДобавлено: 28 фев 2018, 23:13 
Не в сети
Бывалый
Зарегистрирован: 07 июн 2014, 08:13
Торренты: 70
Раздал: 2.18 ТБ 
Скачал: 1.07 ТБ 
Ратио: 2.034
Спасибо: 301 / 651
Сообщения: 178
Комментарии: 174
mullen писал(а):
Это не 3d



 Профиль  
 
Показать сообщения за:  Поле сортировки  
Начать новую тему Ответить на тему  [ Сообщений: 3 ] 


Кто сейчас на трекере

Сейчас этот форум просматривают: нет зарегистрированных пользователей и гости: 3


Вы не можете начинать темы
Вы не можете отвечать на сообщения
Вы не можете редактировать свои сообщения
Вы не можете удалять свои сообщения
Вы не можете добавлять вложения

Найти:


Правообладателям

!ВНИМАНИЕ!
Ресурс не предоставляет электронные версии произведений, а занимается лишь коллекционированием и каталогизацией ссылок, присылаемых и публикуемых на форуме нашими читателями. Если вы являетесь правообладателем какого-либо представленного материала и не желаете чтобы ссылка на него находилась в нашем каталоге, свяжитесь с нами и мы незамедлительно удалим её. Файлы для обмена на трекере предоставлены пользователями сайта, и администрация не несёт ответственности за их содержание. Просьба не заливать файлы, защищенные авторскими правами, а также файлы нелегального содержания!
cron
Вверх страницы
Вниз страницы
ppkBB3cker v.2 © 2008-2011 @ PPK