3d-tracker.ru • Просмотр темы - Спектральный в 3Д / Spectral 3D (2016) [1080p, Half OverUnder / Вертикальная анаморфная стереопара]

Регистрация Имя: Пароль: Запомнить Забыли пароль?



Правила форума





Начать новую тему Ответить на тему  [ 1 сообщение ] 
Статистика раздачи
Размер: 4.29 ГБ | Зарегистрирован: 15 дек 2016, 13:58 | .torrent скачан: 21
Сиды: 7 [0 байт/сек]    Личи: 3 [0 байт/сек]
Автор Сообщение
 СообщениеДобавлено: 15 дек 2016, 13:58 
Не в сети
Супермодератор
Аватара пользователя
Зарегистрирован: 15 апр 2014, 21:21
Торренты: 426
Раздал: 30.04 ТБ 
Скачал: 1.83 ТБ 
Ратио: 27.484
Спасибо: 2392 / 157
Сообщения: 575
Комментарии: 251
Откуда: РОССИЯ, ЦФО

Название: Спектральный
Оригинальное название: Spectral
Год выпуска: 2016
Жанр: Фантастика, боевик, триллер
Выпущено: США, Legendary Pictures, Mid Atlantic Films, NetFlix

Режиссер: Ник Матьё
В ролях: Эмили Мортимер, Клейн Кроуфорд, Макс Мартини, Джеймс Бэдж Дэйл, Брюс Гринвуд, Райан Роббинс, Урсула Паркер, Кори Хардрикт, Гонсало Менендес, Луис Одзава Чангчьен
О фильме: В Молдавии уже не первый год идёт война. Последнее время в зоне боевых действий стали появляться невидимые невооружённым глазом существа, которые мгновенно убивают вооружённых до зубов обученных профессионалов. Доктор Клайн принимал участие в разработке новейшего оружия, бессильного против этих существ, теперь ему предстоит выяснить, что они такое и откуда взялись.

Качество: (1080p) by SOLdAt
Видео: AVC, ~7200 Кбит/с, 1920x808, 23,976 fps
Аудио: Русский АС3, 2 ch, 192 Кбит/с
Размер: 4,29 Гб
Продолжительность: 01:21:37
Перевод: Дублированный

Формат 3D: Half OverUnder / Вертикальная анаморфная стереопара ("без двоения")
Порядок ракурсов: Верхний ракурс первый.
Полное имя : E:\AV\Spectral.2016.mkv
Формат : Matroska
Версия формата : Version 4 / Version 2
Размер файла : 4,29 Гбайт
Продолжительность : 1 ч. 21 м.
Режим общего битрейта : Переменный
Общий поток : 7530 Кбит/сек
Название фильма : from SOLdAt
Дата кодирования : UTC 2016-12-15
Программа кодирования : mkvmerge v8.3.0 ('Over the Horizon') 64bit
Библиотека кодирования : libebml v1.3.1 + libmatroska v1.4.2
DURATION : 01:21:36.838000000

Видео
Идентификатор : 1
Формат : AVC
Версия формата : Version 2
Профиль формата : High@4.0
Идентификатор кодека : V_MPEG2
Продолжительность : 1 ч. 21 м.
Битрейт : 7189 Кбит/сек
Ширина : 1920 пикселей
Высота : 1080 пикселей
Соотношение сторон : 16:9
Режим частоты кадров : Постоянный
Частота кадров : 23,976 кадра/сек
Цветовое пространство : YUV
Субдискретизация насыщенности : 4:2:0
Битовая глубина : 8 бит
Бит/(Пиксели*Кадры) : 0.145
Размер потока : 4,10 Гбайт (95%)
Язык : English
Default : Да
Forced : Нет

Аудио
Идентификатор : 2
Формат : AC-3
Формат/Информация : Audio Coding 3
Расширение режима : CM (complete main)
Параметр Endianness формата : Big
Идентификатор кодека : A_AC3
Продолжительность : 1 ч. 21 м.
Вид битрейта : Постоянный
Битрейт : 192 Кбит/сек
Каналы : 2 канала
Расположение каналов : Front: L R
Частота : 48,0 КГц
Битовая глубина : 16 бит
Размер потока : 112 Мбайт (3%)
Язык : Russian
Default : Да
Forced : Нет

Информация о торренте
Торрент:  Зарегистрирован [15 дек 2016, 13:58] Для скачивания необходимо Зарегистрироваться!



Если Вы уже зарегистрированы, то авторизуйтесь на трекере!
Статус:  
Размер:  4.29 ГБ (4 609 432 715 байт)
Приватный:  Нет (DHT включён)
Хэш:  90e448a35a03be68a9d6
f3c51c728a5ed55ce86e
Здоровье:  100%
.torrent скачан:  21
Как тут качать  Правила, основные инструкции, FAQ-и



_________________


 Профиль  
 
Показать сообщения за:  Поле сортировки  
Начать новую тему Ответить на тему  [ 1 сообщение ] 


Кто сейчас на трекере

Сейчас этот форум просматривают: нет зарегистрированных пользователей и гости: 1


Вы не можете начинать темы
Вы не можете отвечать на сообщения
Вы не можете редактировать свои сообщения
Вы не можете удалять свои сообщения
Вы не можете добавлять вложения

Найти:
 cron

Правообладателям

!ВНИМАНИЕ!
Ресурс не предоставляет электронные версии произведений, а занимается лишь коллекционированием и каталогизацией ссылок, присылаемых и публикуемых на форуме нашими читателями. Если вы являетесь правообладателем какого-либо представленного материала и не желаете чтобы ссылка на него находилась в нашем каталоге, свяжитесь с нами и мы незамедлительно удалим её. Файлы для обмена на трекере предоставлены пользователями сайта, и администрация не несёт ответственности за их содержание. Просьба не заливать файлы, защищенные авторскими правами, а также файлы нелегального содержания!
cron
Вверх страницы
Вниз страницы
ppkBB3cker v.2 © 2008-2011 @ PPK