3d-tracker.ru • Просмотр темы - Снеговик / The Snowman (2017) [2d->3D, BDRip, 1080p, Half Side-by-Side / Горизонтальная анаморфная пара]

Регистрация Имя: Пароль: Запомнить Забыли пароль?



Правила форума





Начать новую тему Ответить на тему  [ Сообщений: 2 ] 
Статистика раздачи
Размер: 3.47 ГБ | Зарегистрирован: 26 дек 2017, 13:07 | .torrent скачан: 8
Сиды: 2 [0 байт/сек]    Личи: 1 [0 байт/сек]
Автор Сообщение
 СообщениеДобавлено: 26 дек 2017, 13:07 
Не в сети
Супермодератор
Аватара пользователя
Зарегистрирован: 15 апр 2014, 21:21
Торренты: 519
Раздал: 35.88 ТБ 
Скачал: 1.83 ТБ 
Ратио: 30.674
Спасибо: 3008 / 212
Сообщения: 685
Комментарии: 311
Откуда: РОССИЯ, ЦФО

«Скоро выпадет первый снег и начнется опасная игра»

Название: Снеговик
Оригинальное название: The Snowman
Год выхода: 2017
Жанр: ужасы, триллер, драма, криминал, детектив

Режиссер: Томас Альфредсон
В ролях: Майкл Фассбендер, Ребекка Фергюсон (II), Шарлотта Генсбур, Йонас Карлссон, Ронан Вайберт, Дж.К. Симмонс, Вэл Килмер, Давид Денсик, Тоби Джонс
О фильме: В течение многих лет в день, когда выпадает первый снег, бесследно исчезают замужние женщины. Сложить все части загадочного пазла под силу только знаменитому детективу. Он потерял покой и сон, ведь время следующего снегопада неумолимо приближается.

Выпущено: Великобритания, США, Швеция
Продолжительность: 01:54:01
Перевод: Дублированный (iTunes)

Качество: BDRip (1080p)
Видео: AVC, 3888 кбит/сек, 23.976 fps, 1920x1080
Аудио: Русский AC3, 6 ch, 384 Кбит/с
Размер: 3,47 Гб

Формат 3D: Half SideBySide / Горизонтальная анаморфная пара (16:9)
Порядок ракурсов: Левый-первый
Формат : Matroska
Версия формата : Version 4 / Version 2
Размер файла : 3,47 Гбайт
Название фильма : СНЕГОВИК в 3Д / 3D (2017)
Программа кодирования : mkvmerge v7.1.0
Библиотека кодирования : libebml v1.3.0 + libmatroska v1.4.1
Attachements : Cover.JPG
DURATION : 01:54:00.885000000

Видео
Идентификатор : 1
Формат : AVC
Формат/Информация : Advanced Video Codec
Профиль формата : High@L4.0
Параметр CABAC формата : Да
Параметр ReFrames формата : 5 кадров
Параметр GOP формата : M=1, N=12
Идентификатор кодека : V_MPEG4/ISO/AVC
Битрейт : 3888 Кбит/сек
Ширина : 1920 пикселей
Высота : 1080 пикселей
Соотношение сторон : 16:9
Режим частоты кадров : Постоянный
Частота кадров : 23,976 кадра/сек
Цветовое пространство : YUV
Субдискретизация насыщенности : 4:2:0
Битовая глубина : 8 бит
Тип развёртки : Прогрессивная
Бит/(Пиксели*Кадры) : 0.078
Размер потока : 3,10 Гбайт (89%)
Язык : English
Default : Да
Forced : Нет

Аудио
Идентификатор : 2
Формат : AC-3
Формат/Информация : Audio Coding 3
Расширение режима : CM (complete main)
Параметр Endianness формата : Big
Идентификатор кодека : A_AC3
Вид битрейта : Постоянный
Битрейт : 384 Кбит/сек
Каналы : 6 каналов
Расположение каналов : Front: L C R, Side: L R, LFE
Частота : 48,0 КГц
Битовая глубина : 16 бит
Размер потока : 313 Мбайт (9%)
Заголовок : 6 ch, 384 kbs - dub
Язык : Russian
Default : Да
Forced : Нет

Информация о торренте
Торрент:  Зарегистрирован [26 дек 2017, 13:07] Для скачивания необходимо Зарегистрироваться!



Если Вы уже зарегистрированы, то авторизуйтесь на трекере!
Статус:  
Размер:  3.47 ГБ (3 728 445 483 байт)
Приватный:  Нет (DHT включён)
Хэш:  53991047d9a7de95f931
6f9366165bc88df1840b
Здоровье:  100%
.torrent скачан:  8
Как тут качать  Правила, основные инструкции, FAQ-и



_________________


 Профиль  
 
 СообщениеДобавлено: 08 янв 2018, 13:28 
Не в сети
заглянувший
Зарегистрирован: 19 мар 2017, 13:03
Торренты: 0
Раздал: 22.9 ГБ 
Скачал: 32.49 ГБ 
Ратио: 0.705
Спасибо: 0 / 0
Сообщения: 1
Комментарии: 1
НЕт скорости !!
:cry_ing: :cry_ing: :sh_ok:


 Профиль  
 
Показать сообщения за:  Поле сортировки  
Начать новую тему Ответить на тему  [ Сообщений: 2 ] 


Кто сейчас на трекере

Сейчас этот форум просматривают: нет зарегистрированных пользователей и гости: 2


Вы не можете начинать темы
Вы не можете отвечать на сообщения
Вы не можете редактировать свои сообщения
Вы не можете удалять свои сообщения
Вы не можете добавлять вложения

Найти:


Правообладателям

!ВНИМАНИЕ!
Ресурс не предоставляет электронные версии произведений, а занимается лишь коллекционированием и каталогизацией ссылок, присылаемых и публикуемых на форуме нашими читателями. Если вы являетесь правообладателем какого-либо представленного материала и не желаете чтобы ссылка на него находилась в нашем каталоге, свяжитесь с нами и мы незамедлительно удалим её. Файлы для обмена на трекере предоставлены пользователями сайта, и администрация не несёт ответственности за их содержание. Просьба не заливать файлы, защищенные авторскими правами, а также файлы нелегального содержания!
cron
Вверх страницы
Вниз страницы
ppkBB3cker v.2 © 2008-2011 @ PPK