3d-tracker.ru • Просмотр темы - Kingsman: Золотое кольцо в 3Д / Kingsman: The Golden Circle 3D (2017) [2d->3D, BDRip, 1080p, Half Side-By-Side / Горизонтальная анаморфная пара]

Регистрация Имя: Пароль: Запомнить Забыли пароль?



Правила форума





Начать новую тему Ответить на тему  [ 1 сообщение ] 
Статистика раздачи
Размер: 6.02 ГБ | Зарегистрирован: 09 янв 2018, 07:48 | .torrent скачан: 27
Сиды: 10 [0 байт/сек]    Личи: 2 [0 байт/сек]
Автор Сообщение
 СообщениеДобавлено: 09 янв 2018, 07:48 
Не в сети
Супермодератор
Аватара пользователя
Зарегистрирован: 15 апр 2014, 21:21
Торренты: 519
Раздал: 35.88 ТБ 
Скачал: 1.83 ТБ 
Ратио: 30.674
Спасибо: 3008 / 212
Сообщения: 685
Комментарии: 311
Откуда: РОССИЯ, ЦФО

Название: Kingsman: Золотое кольцо
Оригинальное название: Kingsman: The Golden Circle
Год выхода: 2017
Жанр: боевик, драма

Режиссер: Мэттью Вон
В ролях: Колин Фёрт, Тэрон Эджертон, Эдвард Холкрофт, Гордон Александр, Марк Стронг, Ханна Альстрём, Кэлвин Демба, Томас Тургус, Тоби Бакаре, Джулианна Мур
О фильме: Когда штаб-квартиры секретной службы «Kingsman» уничтожены, и весь мир оказался в заложниках у неизвестных, британские суперагенты обнаруживают, что в один день вместе с их организацией была еще создана американская разведка — «Statesman». Теперь эти две элитные спецслужбы должны объединиться и бросить вызов общему безжалостному врагу, чтобы спасти мир, то есть заняться тем, что для Эггси становится обычным делом…

Выпущено: Великобритания, США
Продолжительность: 02:15:54
Перевод: Дублированный (iTunes)

Качество: BDRip (1080p)
Видео: AVC / 23,976 fps / 1920x800 / 5832 Кбит/сек
Аудио: AC3 / 5.1 ch / 384 kbps
Размер: 6,02 Гб

Формат 3D: Half SideBySide / Горизонтальная анаморфная пара
Порядок ракурсов: левый ракурс - первый
Формат : Matroska
Версия формата : Version 4 / Version 2
Размер файла : 6,02 Гбайт
Название фильма : Kingsman: Золотое кольцо в 3Д / Kingsman: The Golden Circle 3D (2017)
Программа кодирования : mkvmerge v7.1.0 ('Good Love') 64bit
Библиотека кодирования : libebml v1.3.0 + libmatroska v1.4.1
Attachements : Cover.png
DURATION : 02:15:53.811000000

Видео
Идентификатор : 1
Формат : AVC
Формат/Информация : Advanced Video Codec
Профиль формата : High@L4.0
Параметр CABAC формата : Да
Параметр ReFrames формата : 2 кадра
Параметр GOP формата : M=3, N=18
Идентификатор кодека : V_MPEG4/ISO/AVC
Битрейт : 5833 Кбит/сек
Ширина : 1920 пикселей
Высота : 1080 пикселей
Соотношение сторон : 16:9
Режим частоты кадров : Постоянный
Частота кадров : 23,976 кадра/сек
Цветовое пространство : YUV
Субдискретизация насыщенности : 4:2:0
Битовая глубина : 8 бит
Тип развёртки : Прогрессивная
Бит/(Пиксели*Кадры) : 0.117
Размер потока : 5,54 Гбайт (92%)
Язык : English
Default : Да
Forced : Нет

Аудио
Идентификатор : 2
Формат : AC-3
Формат/Информация : Audio Coding 3
Расширение режима : CM (complete main)
Параметр Endianness формата : Big
Идентификатор кодека : A_AC3
Вид битрейта : Постоянный
Битрейт : 384 Кбит/сек
Каналы : 6 каналов
Расположение каналов : Front: L C R, Side: L R, LFE
Частота : 48,0 КГц
Битовая глубина : 16 бит
Размер потока : 373 Мбайт (6%)
Заголовок : Dub - itunes
Язык : Russian
Default : Да
Forced : Нет

Информация о торренте
Торрент:  Зарегистрирован [09 янв 2018, 07:48] Для скачивания необходимо Зарегистрироваться!



Если Вы уже зарегистрированы, то авторизуйтесь на трекере!
Статус:  
Размер:  6.02 ГБ (6 464 850 900 байт)
Приватный:  Нет (DHT включён)
Хэш:  2422607741b68a786025
275847ff8bd4ceb5b4e1
Здоровье:  100%
.torrent скачан:  27
Как тут качать  Правила, основные инструкции, FAQ-и



_________________


 Профиль  
 
Показать сообщения за:  Поле сортировки  
Начать новую тему Ответить на тему  [ 1 сообщение ] 


Кто сейчас на трекере

Сейчас этот форум просматривают: нет зарегистрированных пользователей и гости: 3


Вы не можете начинать темы
Вы не можете отвечать на сообщения
Вы не можете редактировать свои сообщения
Вы не можете удалять свои сообщения
Вы не можете добавлять вложения

Найти:
 cron

Правообладателям

!ВНИМАНИЕ!
Ресурс не предоставляет электронные версии произведений, а занимается лишь коллекционированием и каталогизацией ссылок, присылаемых и публикуемых на форуме нашими читателями. Если вы являетесь правообладателем какого-либо представленного материала и не желаете чтобы ссылка на него находилась в нашем каталоге, свяжитесь с нами и мы незамедлительно удалим её. Файлы для обмена на трекере предоставлены пользователями сайта, и администрация не несёт ответственности за их содержание. Просьба не заливать файлы, защищенные авторскими правами, а также файлы нелегального содержания!
cron
Вверх страницы
Вниз страницы
ppkBB3cker v.2 © 2008-2011 @ PPK