3d-tracker.ru • Просмотр темы - Место назначения-Луна в 3Д / Destination Moon 3D (1950) [1080p, Half Side-by-Side / Горизонтальная анаморфная пара]

Регистрация Имя: Пароль: Запомнить Забыли пароль?



Правила форума





Начать новую тему Ответить на тему  [ 1 сообщение ] 
Статистика раздачи
Размер: 3.95 ГБ | Зарегистрирован: 09 янв 2018, 08:08 | .torrent скачан: 2
Сиды: 0 [0 байт/сек]    Личи: 0 [0 байт/сек]
Автор Сообщение
 СообщениеДобавлено: 09 янв 2018, 08:08 
Не в сети
Супермодератор
Аватара пользователя
Зарегистрирован: 15 апр 2014, 21:21
Торренты: 519
Раздал: 35.88 ТБ 
Скачал: 1.83 ТБ 
Ратио: 30.674
Спасибо: 3008 / 212
Сообщения: 685
Комментарии: 311
Откуда: РОССИЯ, ЦФО

Название: Место назначения-Луна
Оригинальное название: Destination Moon
Год выпуска: 1950
Жанр: Фантастика, драма, приключения
Выпущено: США, George Pal Productions

Режиссер: Ирвинг Пичел
В ролях: Джон Арчер, Уорнер Андерсон, Том Пауэрс, Дик Уэссон, Эрин О'Брайн-Мур
О фильме: После многолетних научных стараний, группа ученых из США решает, что пришла пора осваивать просторы космоса, и отправляет корабль на Луну. Освободившись от Земной атмосферы, астронавты сталкиваются с угрозой полного отказа оборудования и всеми радостями отсутствия гравитации. Однако главное открытие ожидает их впереди. По прибытии на Луну, команда с ужасом понимает, что у них не осталось топлива на дорогу домой…

Продолжительность: 01:31:11
Перевод: Дублированный

Качество: BDRip (1080p)
Видео: AVC / 23,976 fps / 1920x1080 / 5888 Кбит/сек
Аудио: AC3 / 2 ch / 192 kbps
Размер: 3,95 Гб

Формат 3D: Half SideBySide / Горизонтальная анаморфная пара (4:3)
Порядок ракурсов: левый ракурс - первый
Формат : Matroska
Версия формата : Version 4 / Version 2
Размер файла : 3,95 Гбайт
Название фильма : Место назначения-Луна в 3Д / Destination Moon 3D (1950)
Дата кодирования : UTC 2018-01-08 16:36:29
Программа кодирования : mkvmerge v7.1.0 ('Good Love') 64bit
Библиотека кодирования : libebml v1.3.0 + libmatroska v1.4.1
Attachements : Cover.JPG
DURATION : 01:31:10.976000000

Видео
Идентификатор : 1
Формат : AVC
Формат/Информация : Advanced Video Codec
Профиль формата : High@L4.0
Параметр CABAC формата : Да
Параметр ReFrames формата : 2 кадра
Параметр GOP формата : M=3, N=24
Идентификатор кодека : V_MPEG4/ISO/AVC
Битрейт : 5888 Кбит/сек
Ширина : 1920 пикселей
Высота : 1080 пикселей
Соотношение сторон : 16:9
Режим частоты кадров : Постоянный
Частота кадров : 23,976 кадра/сек
Цветовое пространство : YUV
Субдискретизация насыщенности : 4:2:0
Битовая глубина : 8 бит
Тип развёртки : Прогрессивная
Бит/(Пиксели*Кадры) : 0.118
Размер потока : 3,75 Гбайт (95%)
Язык : English
Default : Да
Forced : Нет

Аудио
Идентификатор : 2
Формат : AC-3
Формат/Информация : Audio Coding 3
Расширение режима : CM (complete main)
Параметр Endianness формата : Big
Идентификатор кодека : A_AC3
Вид битрейта : Постоянный
Битрейт : 192 Кбит/сек
Каналы : 2 канала
Расположение каналов : Front: L R
Частота : 48,0 КГц
Битовая глубина : 16 бит
Размер потока : 125 Мбайт (3%)
Язык : Russian
Default : Да
Forced : Нет

Информация о торренте
Торрент:  Зарегистрирован [09 янв 2018, 08:08] Для скачивания необходимо Зарегистрироваться!



Если Вы уже зарегистрированы, то авторизуйтесь на трекере!
Статус:  
Размер:  3.95 ГБ (4 242 944 462 байт)
Приватный:  Нет (DHT включён)
Хэш:  1b1aa7ac85ffcae6d098
c9987b3fc53cb212c7ea
Здоровье:  0%
.torrent скачан:  2
Как тут качать  Правила, основные инструкции, FAQ-и



_________________


 Профиль  
 
Показать сообщения за:  Поле сортировки  
Начать новую тему Ответить на тему  [ 1 сообщение ] 


Кто сейчас на трекере

Сейчас этот форум просматривают: нет зарегистрированных пользователей и гости: 3


Вы не можете начинать темы
Вы не можете отвечать на сообщения
Вы не можете редактировать свои сообщения
Вы не можете удалять свои сообщения
Вы не можете добавлять вложения

Найти:
 cron

Правообладателям

!ВНИМАНИЕ!
Ресурс не предоставляет электронные версии произведений, а занимается лишь коллекционированием и каталогизацией ссылок, присылаемых и публикуемых на форуме нашими читателями. Если вы являетесь правообладателем какого-либо представленного материала и не желаете чтобы ссылка на него находилась в нашем каталоге, свяжитесь с нами и мы незамедлительно удалим её. Файлы для обмена на трекере предоставлены пользователями сайта, и администрация не несёт ответственности за их содержание. Просьба не заливать файлы, защищенные авторскими правами, а также файлы нелегального содержания!
cron
Вверх страницы
Вниз страницы
ppkBB3cker v.2 © 2008-2011 @ PPK