3d-tracker.ru • Просмотр темы - Звездные врата (Режиссерская версия) 3Д / Stargate (Directors Cut) 3D (1994) [BDRip, 1080p] Crop Half OverUnder

Регистрация Имя: Пароль: Запомнить Забыли пароль?



Правила форума





Начать новую тему Ответить на тему  [ Сообщений: 2 ] 
Статистика раздачи
Размер: 8.27 ГБ | Зарегистрирован: 10 дек 2014, 12:07 | .torrent скачан: 19
Сиды: 13 [0 байт/сек]    Личи: 10 [0 байт/сек]
Автор Сообщение
 СообщениеДобавлено: 10 дек 2014, 12:08 
Не в сети
Бывалый
Зарегистрирован: 15 май 2014, 15:05
Торренты: 38
Раздал: 2.97 ТБ 
Скачал: 1.26 ТБ 
Ратио: 2.355
Спасибо: 219 / 737
Сообщения: 138
Комментарии: 135

За релиз СПАСИБО SOLDAT




Название: Звездные врата (Режиссерская версия)
Оригинальное название: Stargate (Directors Cut)
Год выпуска: 1994
Жанр: Фантастика, боевик, приключения
Выпущено: США, Франция, Canal+, Centropolis Film Productions, Carolco Pictures Inc.
Режиссер: Роланд Эммерих



В ролях: Курт Расселл, Джеймс Спэйдер, Алексис Крус, Вивека Линдфорс, Мили Авитал, Джон Дил, Леон Риппи, Карлос Лаучу, Джимон Хунсу, Эрик Авари, Френч Стюарт, Джанин Лоффлер, Джей Дэвидсон, Джей Дэвидсон, Кристофер Джон Филдс, Дерек Уэбстер, Джек Мур, Стив Джаннелли, Дэвид Прессман, Скотт Алан Смит, Сесил Хоффман, Рэй Аллен, Ричард Кайнд, Джон Стори, Ли Тейлор-Аллан, Джордж Грэй, Келли Винт, Эрик Холланд, Ник Уайлдер, Саид Бадрия, Майкл Консепшн, Джерри Гилмор, Мишель Жан-Филипп, Глэдис Холланд, Дили Н’Дайе, Роджер Тиль, Кеннет Дэнзигер, Кристофер Уэст, Роберт Экерман, Кирон Джо
О фильме: 1928 год. Египет. Археолог находит странное сооружение. Через много лет уже в наше время его дочь привлекает молодого специалиста Джексона для разгадки тайны, над которой бьются ученые на военной базе в горах. Таинственное сооружение оказывается проходом в другие миры. С группой спецназа Джексон и полковник отправляются через звездные врата навстречу неизведанному. А там их ждут суровые испытания и борьба, от исхода которой зависит судьба человечества.

Качество: BDRip (1080р)
Видео: MPEG-4 AVC, 9184 Кбит/с, 30 кадр/с
Аудио: Русский AC-3, 6 ch, 448 Кбит/с
Продолжительность: 02:00:28
Размер: 8,27 Гб
Перевод: Профессиональный многоголосый


Формат 3D: Crop Half OverUnder / Вертикальная анаморфная стереопара Без черных полос (На весь экран)
Порядок ракурсов: левый ракурс первый.
Контейнер: Matroska
Полное имя : D:\Раздача\Звёздные врата.mkv
Формат : Matroska
Версия формата : Version 4 / Version 2
Размер файла : 8,27 Гбайт
Продолжительность : 2 ч. 0 м.
Общий поток : 9827 Кбит/сек
Название фильма : Звёздные врата
Программа кодирования : mkvmerge v7.3.0 ('Nouages') 64bit
Библиотека кодирования : libebml v1.3.0 + libmatroska v1.4.1
DURATION : 02:00:28.256000000
NUMBER_OF_FRAMES : 225883
NUMBER_OF_BYTES : 404782336

Видео
Идентификатор : 1
Формат : AVC
Формат/Информация : Advanced Video Codec
Профиль формата : High@L4.1
Параметр CABAC формата : Да
Параметр ReFrames формата : 2 кадра
Идентификатор кодека : V_MPEG4/ISO/AVC
Продолжительность : 2 ч. 0 м.
Битрейт : 9184 Кбит/сек
Ширина : 1920 пикселей
Высота : 1080 пикселей
Соотношение сторон : 16:9
Режим частоты кадров : Постоянный
Частота кадров : 30,000 кадров/сек
Цветовое пространство : YUV
Субдискретизация насыщенности : 4:2:0
Битовая глубина : 8 бит
Тип развёртки : Прогрессивная
Бит/(Пиксели*Кадры) : 0.148
Размер потока : 7,73 Гбайт (93%)
Заголовок : Rip by SOLdAt
Библиотека кодирования : x264 core
Язык : Russian
Default : Да
Основные цвета : BT.709
Характеристики трансфера : BT.709
Коэффициенты матрицы : BT.709

Аудио
Идентификатор : 2
Формат : AC-3
Формат/Информация : Audio Coding 3
Расширение режима : CM (complete main)
Параметр Endianness формата : Big
Идентификатор кодека : A_AC3
Продолжительность : 2 ч. 0 м.
Вид битрейта : Постоянный
Битрейт : 448 Кбит/сек
Каналы : 6 каналов
Расположение каналов : Front: L C R, Side: L R, LFE
Частота : 48,0 КГц
Битовая глубина : 16 бит
Размер потока : 386 Мбайт (5%)
Заголовок : 5.1 DTS, 448 kb/s
Язык : Russian
Default : Да

Информация о торренте
Торрент:  Зарегистрирован [10 дек 2014, 12:07] Для скачивания необходимо Зарегистрироваться!



Если Вы уже зарегистрированы, то авторизуйтесь на трекере!
Статус:   изменил Soldat (28 дек 2017, 11:57)
Размер:  8.27 ГБ (8 879 230 117 байт)
Приватный:  Нет (DHT включён)
Хэш:  19b97cc2332bead3d52c
7e456238e413397a076d
Здоровье:  100%
.torrent скачан:  19
Как тут качать  Правила, основные инструкции, FAQ-и




 Профиль  
 
 СообщениеДобавлено: 09 фев 2018, 19:11 
Не в сети
заглянувший
Зарегистрирован: 27 янв 2015, 14:20
Торренты: 0
Раздал: 143.99 ГБ 
Скачал: 32.64 ГБ 
Ратио: 4.411
Спасибо: 0 / 2
Сообщения: 2
Комментарии: 2
к сожалению неправильно закодирован торрент! закачать невозможно!


 Профиль  
 
Показать сообщения за:  Поле сортировки  
Начать новую тему Ответить на тему  [ Сообщений: 2 ] 


Кто сейчас на трекере

Сейчас этот форум просматривают: нет зарегистрированных пользователей и гости: 3


Вы не можете начинать темы
Вы не можете отвечать на сообщения
Вы не можете редактировать свои сообщения
Вы не можете удалять свои сообщения
Вы не можете добавлять вложения

Найти:


Правообладателям

!ВНИМАНИЕ!
Ресурс не предоставляет электронные версии произведений, а занимается лишь коллекционированием и каталогизацией ссылок, присылаемых и публикуемых на форуме нашими читателями. Если вы являетесь правообладателем какого-либо представленного материала и не желаете чтобы ссылка на него находилась в нашем каталоге, свяжитесь с нами и мы незамедлительно удалим её. Файлы для обмена на трекере предоставлены пользователями сайта, и администрация не несёт ответственности за их содержание. Просьба не заливать файлы, защищенные авторскими правами, а также файлы нелегального содержания!
cron
Вверх страницы
Вниз страницы
ppkBB3cker v.2 © 2008-2011 @ PPK