3d-tracker.ru • Просмотр темы - Убить за лайк в 3Д / Tragedy Girls 3D (2017) [2d->3D, 1080p, Half SideBySide / Горизонтальная анаморфная пара]

Регистрация Имя: Пароль: Запомнить Забыли пароль?



Правила форума





Начать новую тему Ответить на тему  [ 1 сообщение ] 
Статистика раздачи
Размер: 4.21 ГБ | Зарегистрирован: 09 янв 2018, 07:53 | .torrent скачан: 4
Сиды: 1 [0 байт/сек]    Личи: 0 [0 байт/сек]
Автор Сообщение
 СообщениеДобавлено: 09 янв 2018, 07:53 
Не в сети
Супермодератор
Аватара пользователя
Зарегистрирован: 15 апр 2014, 21:21
Торренты: 519
Раздал: 35.97 ТБ 
Скачал: 1.83 ТБ 
Ратио: 30.722
Спасибо: 3011 / 212
Сообщения: 685
Комментарии: 311
Откуда: РОССИЯ, ЦФО

Название: Убить за лайк
Оригинальное название: Tragedy Girls
Год выхода: 2017
Жанр: ужасы, комедия

Режиссер: Тайлер МакИнтайр
В ролях: Джош Хатчерсон, Брианна Хилдебранд, Кевин Дюран, Никки Уилан, Крэйг Робинсон, Александра Шипп, Розалинд Чао, Джек Куэйд, Остин Абрамс, Тимоти В. Мерфи
О фильме: Две подружки-старшеклассницы одержимы мечтой стать звездами социальных сетей. Но, как известно, хорошими делами прославиться нельзя. Поэтому они заводят блог «Кошмарные девчонки», в котором смачно комментируют трагедии и несчастные случаи, происходящие в их городке. Количество подписчиков растет, но для новых лайков требуются новые кровавые репортажи. Амбициозные девушки, ощущая острую нехватку материала, принимаются убивать всех, кто мешает им по жизни, совмещая «приятное» с «полезным»…

Выпущено: США
Продолжительность: 01:34:08
Перевод: Дублированный (iTunes)

Качество: BDRip (1080p)
Видео: AVC / 23,976 fps / 1920x800 / 5889 Кбит/сек
Аудио: AC3 / 5.1 ch / 384 kbps
Размер: 4,21 Гб

Формат 3D: Half SideBySide / Горизонтальная анаморфная пара
Порядок ракурсов: левый ракурс - первый
Формат : Matroska
Версия формата : Version 4 / Version 2
Размер файла : 4,21 Гбайт
Название фильма : Убить за лайк в 3Д / Tragedy Girls 3D (2017)
Программа кодирования : mkvmerge v7.1.0 ('Good Love') 64bit
Библиотека кодирования : libebml v1.3.0 + libmatroska v1.4.1
Attachements : Cover.JPG
DURATION : 01:34:07.936000000

Видео
Идентификатор : 1
Формат : AVC
Формат/Информация : Advanced Video Codec
Профиль формата : High@L4.0
Параметр CABAC формата : Да
Параметр ReFrames формата : 2 кадра
Параметр GOP формата : M=3, N=18
Идентификатор кодека : V_MPEG4/ISO/AVC
Битрейт : 5889 Кбит/сек
Ширина : 1920 пикселей
Высота : 1080 пикселей
Соотношение сторон : 16:9
Режим частоты кадров : Постоянный
Частота кадров : 23,976 кадра/сек
Цветовое пространство : YUV
Субдискретизация насыщенности : 4:2:0
Битовая глубина : 8 бит
Тип развёртки : Прогрессивная
Бит/(Пиксели*Кадры) : 0.118
Размер потока : 3,87 Гбайт (92%)
Язык : English
Default : Да
Forced : Нет

Аудио
Идентификатор : 2
Формат : AC-3
Формат/Информация : Audio Coding 3
Расширение режима : CM (complete main)
Параметр Endianness формата : Big
Идентификатор кодека : A_AC3
Вид битрейта : Постоянный
Битрейт : 384 Кбит/сек
Каналы : 6 каналов
Расположение каналов : Front: L C R, Side: L R, LFE
Частота : 48,0 КГц
Битовая глубина : 16 бит
Размер потока : 259 Мбайт (6%)
Язык : Russian
Default : Да
Forced : Нет

Информация о торренте
Торрент:  Зарегистрирован [09 янв 2018, 07:53] Для скачивания необходимо Зарегистрироваться!



Если Вы уже зарегистрированы, то авторизуйтесь на трекере!
Статус:  
Размер:  4.21 ГБ (4 518 321 224 байт)
Приватный:  Нет (DHT включён)
Хэш:  00a318cee3e3a5f6a84c
03cb541aae1163cdb7b2
Здоровье:  100%
.torrent скачан:  4
Как тут качать  Правила, основные инструкции, FAQ-и



_________________


 Профиль  
 
Показать сообщения за:  Поле сортировки  
Начать новую тему Ответить на тему  [ 1 сообщение ] 


Кто сейчас на трекере

Сейчас этот форум просматривают: нет зарегистрированных пользователей и гости: 3


Вы не можете начинать темы
Вы не можете отвечать на сообщения
Вы не можете редактировать свои сообщения
Вы не можете удалять свои сообщения
Вы не можете добавлять вложения

Найти:


Правообладателям

!ВНИМАНИЕ!
Ресурс не предоставляет электронные версии произведений, а занимается лишь коллекционированием и каталогизацией ссылок, присылаемых и публикуемых на форуме нашими читателями. Если вы являетесь правообладателем какого-либо представленного материала и не желаете чтобы ссылка на него находилась в нашем каталоге, свяжитесь с нами и мы незамедлительно удалим её. Файлы для обмена на трекере предоставлены пользователями сайта, и администрация не несёт ответственности за их содержание. Просьба не заливать файлы, защищенные авторскими правами, а также файлы нелегального содержания!
cron
Вверх страницы
Вниз страницы
ppkBB3cker v.2 © 2008-2011 @ PPK