3d-tracker.ru • Просмотр темы - Сумерки.Сага 3Д / The Twilight Saga 3D (2008-2012) [BDRip, 1080p (60 fps)] Crop Half SideBySide

Регистрация Имя: Пароль: Запомнить Забыли пароль?



Правила форума





Начать новую тему Ответить на тему  [ Сообщений: 7 ] 
Статистика раздачи
Размер: 52.08 ГБ | Зарегистрирован: 19 ноя 2014, 09:58 | .torrent скачан: 3
Сиды: 2 [0 байт/сек]    Личи: 6 [0 байт/сек]
Автор Сообщение
 СообщениеДобавлено: 19 ноя 2014, 09:58 
Не в сети
Супермодератор
Аватара пользователя
Зарегистрирован: 15 апр 2014, 21:21
Торренты: 519
Раздал: 35.68 ТБ 
Скачал: 1.83 ТБ 
Ратио: 30.562
Спасибо: 3002 / 212
Сообщения: 685
Комментарии: 311
Откуда: РОССИЯ, ЦФО



2Д=>

Сумерки 3Д / Twilight 3D (2008) [BDRip, 1080p (60 fps] Crop Half SideBySide


Название: Сумерки
Оригинальное название: Twilight
Год выпуска: 2008
Жанр: Драма, Зарубежный фильм, Мелодрама, Фэнтези
Выпущено: США
Режиссер: Кэтрин Хардвик


В ролях: Кристен Стюарт, Роберт Паттинсон, Эшли Грин, Анна Кендрик, Рашель Лефевр, Никки Рид, Кристиан Серратос, Элизабет Ризер, Кэм Жиганде, Билли Бёрк, Тэйлор Лотнер, Джексон Рэтбоун, Питер Фачинелли
О фильме: "Сумерки" - история современных "Ромео и Джульетты ".
Обычная американская школьница Белла Свон переезжает жить к отцу в небольшой городок. В новой школе ее привлекает нелюдимый и загадочный красавец ЭдвардКоллин . Но чем больше Беллу влечет к нему, тем дальше Эдвард отдаляется. Какую тайну он скрывает? Белла решительно настроена это узнать! Но реальность оказывается жестока - Эдвард - вампир. Возможна ли любовь между обычной девушкой и вампиром?


Качество: BDRip[1080p]
Видео: MPEG-4 AVC, 12,7 Мбит/с, 60 кадр/с
Аудио: Русский АС3, 6 ch, 448 Кбит/с
Размер: 10,6 ГБ
Продолжительность: 01:53:39
Перевод: Дублированный


Формат 3D: Crop Half SideBySide / Горизонтальная анаморфная стереопара на весь экран
Порядок ракурсов: левый ракурс первый.
Контейнер: Matroska
Полное имя : D:\Раздача\СУМЕРКИ.САГА (2008-2012)\01_Сумерки.mkv
Формат : Matroska
Версия формата : Version 4 / Version 2
Размер файла : 10,6 Гбайт
Продолжительность : 1 ч. 53 м.
Общий поток : 13,4 Мбит/сек
Название фильма : СУМЕРКИ (2008) from SOLdAt
Дата кодирования : UTC 2014-11-18
Программа кодирования : mkvmerge v7.3.0 ('Nouages') 64bit
Библиотека кодирования : libebml v1.3.0 + libmatroska v1.4.1
DURATION : 01:53:39.838000000
NUMBER_OF_FRAMES : 213120
NUMBER_OF_BYTES : 381911040
_STATISTICS_WRITING_APP : mkvmerge v7.3.0 ('Nouages') 64bit
_STATISTICS_WRITING_DATE_UTC : 2014-11-18 12:20:56
_STATISTICS_TAGS : BPS DURATION NUMBER_OF_FRAMES NUMBER_OF_BYTES

Видео
Идентификатор : 1
Формат : AVC
Формат/Информация : Advanced Video Codec
Профиль формата : High@L4.2
Параметр CABAC формата : Да
Параметр ReFrames формата : 4 кадра
Параметр GOP формата : M=3, N=13
Идентификатор кодека : V_MPEG4/ISO/AVC
Битрейт : 12,7 Мбит/сек
Ширина : 1920 пикселей
Высота : 1080 пикселей
Соотношение сторон : 16:9
Режим частоты кадров : Переменный
Цветовое пространство : YUV
Субдискретизация насыщенности : 4:2:0
Битовая глубина : 8 бит
Тип развёртки : Прогрессивная
Заголовок : Rip by SOLdAt [1080p, 60 fps]
Язык : Russian
Default : Да

Аудио
Идентификатор : 2
Формат : AC-3
Формат/Информация : Audio Coding 3
Расширение режима : CM (complete main)
Параметр Endianness формата : Big
Идентификатор кодека : A_AC3
Продолжительность : 1 ч. 53 м.
Вид битрейта : Постоянный
Битрейт : 448 Кбит/сек
Каналы : 6 каналов
Расположение каналов : Front: L C R, Side: L R, LFE
Частота : 48,0 КГц
Битовая глубина : 16 бит
Размер потока : 364 Мбайт (3%)
Заголовок : 6 ch, 448 kb/s
Язык : Russian
Default : Да



Сумерки. Сага. Новолуние 3Д / The Twilight Saga: New Moon 3D (2009) [BDRip, 1080p (60 fps] Crop Half SideBySide


Название: Сумерки. Сага. Новолуние
Оригинальное название: The Twilight Saga: New Moon
Год выпуска: 2009
Жанр: Драма, Зарубежный фильм, Мелодрама, Фэнтези
Выпущено: США
Режиссер: Крис Вайц


В ролях: Кристен Стюарт, Роберт Паттинсон, Тэйлор Лотнер, Билли Бёрк, Джексон Рэтбоун, Эшли Грин, Анна Кендрик, Кристиан Серратос, Джастин Чон, Майкл Уэлш, Никки Рид, Рашель Лефевр, Келлан Латс, Питер Фачинелли
О фильме: Когда Эдвард понимает, что жизнь Беллы в опасности по его вине, он принимает непростое решение. Надеясь, что любимая будет в безопасности вдалеке от него, он объявляет о своем отъезде и разрывает отношения между ними. Жизнь Беллы превращается в череду серых дней... Единственное ее утешение после отъезда Эдварда - друг-индеец Джейкоб. В его компании Белле становится чуть легче. Но оказывается, что этот парень тоже не прост - он принадлежит к народу оборотней, заклятых врагов вампиров. Героиня оказывается между двух огней..

Качество: BDRip[1080p]
Видео: MPEG-4 AVC, 12,7 Мбит/с, 60 кадр/с
Аудио: Русский АС3, 6 ch, 448 Кбит/с
Размер: 11,4 ГБ
Продолжительность: 02:01:23
Перевод: Дублированный


Формат 3D: Crop Half SideBySide / Горизонтальная анаморфная стереопара на весь экран
Порядок ракурсов: левый ракурс первый.
Контейнер: Matroska
Полное имя : D:\Раздача\СУМЕРКИ.САГА (2008-2012)\02_Сумерки.Сага.Полнолуние.mkv
Формат : Matroska
Версия формата : Version 4 / Version 2
Размер файла : 11,4 Гбайт
Продолжительность : 2 ч. 1 м.
Общий поток : 13,5 Мбит/сек
Название фильма : Сумерки.Сага.Полнолуние - from SOLdAt
Дата кодирования : UTC 2014-11-19
Программа кодирования : mkvmerge v7.3.0 ('Nouages') 64bit
Библиотека кодирования : libebml v1.3.0 + libmatroska v1.4.1
DURATION : 02:01:23.070000000
NUMBER_OF_FRAMES : 227596
NUMBER_OF_BYTES : 407852032
_STATISTICS_WRITING_APP : mkvmerge v7.3.0 ('Nouages') 64bit
_STATISTICS_WRITING_DATE_UTC : 2014-11-19
_STATISTICS_TAGS : BPS DURATION NUMBER_OF_FRAMES NUMBER_OF_BYTES

Видео
Идентификатор : 1
Формат : AVC
Формат/Информация : Advanced Video Codec
Профиль формата : High@L4.2
Параметр CABAC формата : Да
Параметр ReFrames формата : 4 кадра
Параметр GOP формата : M=3, N=13
Идентификатор кодека : V_MPEG4/ISO/AVC
Битрейт : 12,7 Мбит/сек
Ширина : 1920 пикселей
Высота : 1080 пикселей
Соотношение сторон : 16:9
Режим частоты кадров : Переменный
Цветовое пространство : YUV
Субдискретизация насыщенности : 4:2:0
Битовая глубина : 8 бит
Тип развёртки : Прогрессивная
Заголовок : Rip by SOLdAt [1080p, 60 fps]
Язык : Russian
Default : Да

Аудио
Идентификатор : 2
Формат : AC-3
Формат/Информация : Audio Coding 3
Расширение режима : CM (complete main)
Параметр Endianness формата : Big
Идентификатор кодека : A_AC3
Продолжительность : 2 ч. 1 м.
Вид битрейта : Постоянный
Битрейт : 448 Кбит/сек
Каналы : 6 каналов
Расположение каналов : Front: L C R, Side: L R, LFE
Частота : 48,0 КГц
Битовая глубина : 16 бит
Размер потока : 389 Мбайт (3%)
Заголовок : 5.1 ch, 448 kb/s
Язык : Russian
Default : Да




Сумерки. Сага. Затмение 3Д / The Twilight Saga: Eclipse 3D (2010) [BDRip, 1080p (60 fps] Crop Half SideBySide


Название: Сумерки. Сага. Затмение
Оригинальное название: The Twilight Saga: Eclipse
Год выпуска: 2010
Жанр: Драма, Зарубежный фильм, Мелодрама, Фэнтези
Выпущено: США
Режиссер: Дэвид Слэйд


В ролях: Кристен Стюарт, Роберт Паттинсон, Тэйлор Лотнер, Брайс Даллас Ховард, Билли Бёрк, Эшли Грин, Питер Фачинелли, Сара Кларк, Дакота Фаннинг, Никки Рид, Келлан Латс, Завьер Сэмюэл
О фильме: Продолжается война вампирских кланов. Кровожадная Виктория создала целую армию новообращенных, гибнут люди, но подлинная цель ее - Белла. Чтобы отомстить Эдварду, рыжая вампирша должна убить его возлюбленную. Перед лицом общей опасности оборотни и Калены объединяются. А в это время Белла пытается сделать нелегкий выбор: пройти обращение или остаться человеком, быть с вампиром или стать спутницей оборотня. Решение непростое: Эдвард предложил ей руку и сердце, а Джейкоб заявил, что будет сражаться за любовь Беллы до конца...

Качество: BDRip[1080p]
Видео: MPEG-4 AVC, 12,8 Мбит/с, 60 кадр/с
Аудио: Русский АС3, 6 ch, 448 Кбит/с
Размер: 10,8 ГБ
Продолжительность: 01:55:12
Перевод: Дублированный


Формат 3D: Crop Half SideBySide / Горизонтальная анаморфная стереопара на весь экран
Порядок ракурсов: левый ракурс первый.
Контейнер: Matroska
Полное имя : D:\Раздача\СУМЕРКИ.САГА (2008-2012)\03_Сумерки.Сага.Затмнение.mkv
Формат : Matroska
Версия формата : Version 4 / Version 2
Размер файла : 10,8 Гбайт
Продолжительность : 1 ч. 55 м.
Режим общего битрейта : Переменный
Общий поток : 13,5 Мбит/сек
Название фильма : Сумерки.Сага.Затмнение - from SOLdAt
Дата кодирования : UTC 2014-11-19
Программа кодирования : mkvmerge v7.3.0 ('Nouages') 64bit
Библиотека кодирования : libebml v1.3.0 + libmatroska v1.4.1
DURATION : 01:55:11.998000000
NUMBER_OF_FRAMES : 216000
NUMBER_OF_BYTES : 387072000
_STATISTICS_WRITING_APP : mkvmerge v7.3.0 ('Nouages') 64bit
_STATISTICS_WRITING_DATE_UTC : 2014-11-19
_STATISTICS_TAGS : BPS DURATION NUMBER_OF_FRAMES NUMBER_OF_BYTES

Видео
Идентификатор : 1
Формат : AVC
Формат/Информация : Advanced Video Codec
Профиль формата : Main@L4.2
Параметр CABAC формата : Да
Параметр ReFrames формата : 4 кадра
Идентификатор кодека : V_MPEG4/ISO/AVC
Продолжительность : 1 ч. 55 м.
Вид битрейта : Переменный
Битрейт : 12,8 Мбит/сек
Максимальный битрейт : 13,5 Мбит/сек
Ширина : 1920 пикселей
Высота : 1080 пикселей
Соотношение сторон : 16:9
Режим частоты кадров : Постоянный
Частота кадров : 60,000 кадров/сек
Цветовое пространство : YUV
Субдискретизация насыщенности : 4:2:0
Битовая глубина : 8 бит
Тип развёртки : Прогрессивная
Бит/(Пиксели*Кадры) : 0.102
Размер потока : 10,3 Гбайт (95%)
Заголовок : Rip by SOLdAt [1080p, 60 fps]
Язык : Russian
Default : Да

Аудио
Идентификатор : 2
Формат : AC-3
Формат/Информация : Audio Coding 3
Расширение режима : CM (complete main)
Параметр Endianness формата : Big
Идентификатор кодека : A_AC3
Продолжительность : 1 ч. 55 м.
Вид битрейта : Постоянный
Битрейт : 448 Кбит/сек
Каналы : 6 каналов
Расположение каналов : Front: L C R, Side: L R, LFE
Частота : 48,0 КГц
Битовая глубина : 16 бит
Размер потока : 369 Мбайт (3%)
Заголовок : 5.1 ch, 448 kb/s
Язык : Russian
Default : Да



Сумерки. Сага. Рассвет: (Часть 1+2) 3Д / The Twilight Saga: Breaking Dawn (Part 1+2) 3D (2011-2012) [BDRip, 1080p (60 fps] Crop Half SideBySide


Название: Сумерки. Сага. Рассвет: (Часть 1+2)
Оригинальное название: The Twilight Saga: Breaking Dawn (Part 1+2)
Год выпуска: 2011-2012
Жанр: Драма, Зарубежный фильм, Мелодрама, Фэнтези
Выпущено: США
Режиссер: Билл Кондон


В ролях: Кристен Стюарт, Роберт Паттинсон, Дакота Фаннинг, МакКензи Фой, Мэгги Грэйс, Ли Пейс, Майкл Шин, Тэйлор Лотнер, Билли Бёрк, Питер Фачинелли, Элизабет Ризер, Келлан Латс, Никки Рид, Джексон Рэтбоун, Эшли Грин
О фильме: Белла Свон оказывается перед непростым выбором — сохранить жизнь себе или своему ребенку (наполовину вампиру, наполовину человеку). Она решает оставить малыша, но Эдвард и остальные члены семьи Каллен категорически против. Помощи Белле ждать не от кого, но она приходит неожиданно, от того, от кого её совсем не ждали. Вдвоем Белла и Розали пытаются сохранить жизнь малышу, даже не догадываясь, к каким ужасающим последствиям это приведет.

Белла, став вампиром, постепенно свыкается со своей новой природой. В этом ей помогают Эдвард и остальные члены семьи Калленов. К тому же теперь у Беллы есть дочь Ренесми и вечность впереди. Джейкоб, запечатленный с Ренесми, становится для девочки другом и наставником. Ненадолго для героев наступают спокойные, счастливые дни. Все заканчивается, когда вести о Ренесми доходят до Вольтури. «Обращение» детей строго запрещено в мире вампиров. Не зная о необычном происхождении Ренесми, Вольтури собирают армию и направляются в Форкс, чтобы уничтожить Калленов.


Качество: BDRip[1080p]
Видео: MPEG-4 AVC, 12,7 Мбит/с, 60 кадр/с
Аудио: Русский АС3, 6 ch, 448 Кбит/с
Размер: 19,2 Гб
Продолжительность: 03:24:26
Перевод: Дублированный


Формат 3D: Crop Half SideBySide / Горизонтальная анаморфная стереопара на весь экран
Порядок ракурсов: левый ракурс первый.
Контейнер: Matroska
Полное имя : D:\Раздача\СУМЕРКИ.САГА (2008-2012)\04-05_Сумерки.Сага.Рассвет.mkv
Формат : Matroska
Версия формата : Version 4 / Version 2
Размер файла : 19,2 Гбайт
Продолжительность : 3 ч. 24 м.
Общий поток : 13,5 Мбит/сек
Название фильма : СУМЕРКИ.САГА.РАССВЕТ (1 и 2 часть) from SOLdAt
Дата кодирования : UTC 2014-11-18
Программа кодирования : mkvmerge v7.3.0 ('Nouages') 64bit
Библиотека кодирования : libebml v1.3.0 + libmatroska v1.4.1
DURATION : 03:24:26.270000000
NUMBER_OF_FRAMES : 383321
NUMBER_OF_BYTES : 686911232
_STATISTICS_WRITING_APP : mkvmerge v7.3.0 ('Nouages') 64bit
_STATISTICS_WRITING_DATE_UTC : 2014-11-18
_STATISTICS_TAGS : BPS DURATION NUMBER_OF_FRAMES NUMBER_OF_BYTES

Видео
Идентификатор : 1
Формат : AVC
Формат/Информация : Advanced Video Codec
Профиль формата : High@L4.2
Параметр CABAC формата : Да
Параметр ReFrames формата : 4 кадра
Параметр GOP формата : M=3, N=13
Идентификатор кодека : V_MPEG4/ISO/AVC
Битрейт : 12,7 Мбит/сек
Ширина : 1920 пикселей
Высота : 1080 пикселей
Соотношение сторон : 16:9
Режим частоты кадров : Переменный
Цветовое пространство : YUV
Субдискретизация насыщенности : 4:2:0
Битовая глубина : 8 бит
Тип развёртки : Прогрессивная
Заголовок : 1080p - 60 fps Rip by SOLdAt
Язык : Russian
Default : Да

Аудио
Идентификатор : 2
Формат : AC-3
Формат/Информация : Audio Coding 3
Расширение режима : CM (complete main)
Параметр Endianness формата : Big
Идентификатор кодека : A_AC3
Продолжительность : 3 ч. 24 м.
Вид битрейта : Постоянный
Битрейт : 448 Кбит/сек
Каналы : 6 каналов
Расположение каналов : Front: L C R, Side: L R, LFE
Частота : 48,0 КГц
Битовая глубина : 16 бит
Размер потока : 655 Мбайт (3%)
Заголовок : 5.1 448 kb/s
Язык : Russian
Default : Да



Каждый фильм(торрент)-можно скачать отдельно(выделить галочкой в торрент-менеджере)

Информация о торренте
Торрент:  Зарегистрирован [19 ноя 2014, 09:58] Для скачивания необходимо Зарегистрироваться!



Если Вы уже зарегистрированы, то авторизуйтесь на трекере!
Статус:   изменил Soldat (17 янв 2017, 09:54)
Размер:  52.08 ГБ (55 921 409 774 байт)
Приватный:  Нет (DHT включён)
Хэш:  015a02cba42d6e825532
747d8547aadd867e112b
Здоровье:  33%
.torrent скачан:  3
Как тут качать  Правила, основные инструкции, FAQ-и



_________________


Последний раз редактировалось Soldat 19 ноя 2014, 13:44, всего редактировалось 5 раз(а).

 Профиль  
 
 СообщениеДобавлено: 19 ноя 2014, 11:35 
Не в сети
Супермодератор
Аватара пользователя
Зарегистрирован: 15 апр 2014, 21:21
Торренты: 519
Раздал: 35.68 ТБ 
Скачал: 1.83 ТБ 
Ратио: 30.562
Спасибо: 3002 / 212
Сообщения: 685
Комментарии: 311
Откуда: РОССИЯ, ЦФО
Elen-best писал(а):
Большое спасибо!Обязательно качну "Рассвет" - обе части!
Интересно сколько времени занял сей глобальный конверт???(да ещё с 60 кадр/сек)

Пожалуста!Работало 3 Пк-2 суток!

_________________


 Профиль  
 
 СообщениеДобавлено: 19 ноя 2014, 14:17 
Не в сети
Бывалый
Зарегистрирован: 15 май 2014, 15:05
Торренты: 38
Раздал: 2.97 ТБ 
Скачал: 1.26 ТБ 
Ратио: 2.355
Спасибо: 219 / 737
Сообщения: 138
Комментарии: 135
СПАСИБКИ! :co_ol: Нравятся все 5 фильмов, но 52 Гб-для меня многовато!Если можно вполовину битрейт уменьшить??? Или в 720р сделать!? :smu:sche_nie:


 Профиль  
 
 СообщениеДобавлено: 09 янв 2018, 18:15 
Не в сети
заглянувший
Зарегистрирован: 09 янв 2018, 18:11
Торренты: 0
Раздал: 5 ГБ 
Скачал: 0 байт 
Ратио: None.
Спасибо: 0 / 0
Сообщения: 2
Комментарии: 2
Ух ты! Неужели фуллскрин :sh_ok: Весь инет облазила не могу найти 2Д фуллскрин без долбанных черных полос... Подскажите, рип с чего делали? Где можно скачать оригинал без черных полос? :cry_ing:


 Профиль  
 
 СообщениеДобавлено: 09 янв 2018, 20:51 
Не в сети
Супермодератор
Аватара пользователя
Зарегистрирован: 15 апр 2014, 21:21
Торренты: 519
Раздал: 35.68 ТБ 
Скачал: 1.83 ТБ 
Ратио: 30.562
Спасибо: 3002 / 212
Сообщения: 685
Комментарии: 311
Откуда: РОССИЯ, ЦФО
Xa0Tuka писал(а):
Где можно скачать оригинал без черных полос?


viewtopic.php?t=2570&f=31

Если очень нужно завтра часов с 11/00 МСК раздам!!!

_________________


 Профиль  
 
 СообщениеДобавлено: 05 фев 2018, 20:31 
Не в сети
заглянувший
Зарегистрирован: 09 янв 2018, 18:11
Торренты: 0
Раздал: 5 ГБ 
Скачал: 0 байт 
Ратио: None.
Спасибо: 0 / 0
Сообщения: 2
Комментарии: 2
Soldat писал(а):
Xa0Tuka писал(а):
Где можно скачать оригинал без черных полос?


viewtopic.php?t=2570&f=31

Если очень нужно завтра часов с 11/00 МСК раздам!!!

Блин, у Вас указано "2Д=>3Д", я думала Вы из 2Д делали, мне то именно 2д нужен такого качества и без полос черных:(

А в оригинале черные полосы были убраны путем обрезки кадра по бокам, или изначально была фуллскрин версия картинки?


 Профиль  
 
 СообщениеДобавлено: 09 фев 2018, 09:10 
Не в сети
Бывалый
Зарегистрирован: 07 июн 2014, 08:13
Торренты: 70
Раздал: 2.18 ТБ 
Скачал: 1.07 ТБ 
Ратио: 2.034
Спасибо: 301 / 651
Сообщения: 178
Комментарии: 174
Xa0Tuka писал(а):
в оригинале черные полосы были убраны путем обрезки кадра по бокам

Именно так!!!!
С исходника сделан Zoom


 Профиль  
 
Показать сообщения за:  Поле сортировки  
Начать новую тему Ответить на тему  [ Сообщений: 7 ] 


Кто сейчас на трекере

Сейчас этот форум просматривают: нет зарегистрированных пользователей и гости: 4


Вы не можете начинать темы
Вы не можете отвечать на сообщения
Вы не можете редактировать свои сообщения
Вы не можете удалять свои сообщения
Вы не можете добавлять вложения

Найти:


Правообладателям

!ВНИМАНИЕ!
Ресурс не предоставляет электронные версии произведений, а занимается лишь коллекционированием и каталогизацией ссылок, присылаемых и публикуемых на форуме нашими читателями. Если вы являетесь правообладателем какого-либо представленного материала и не желаете чтобы ссылка на него находилась в нашем каталоге, свяжитесь с нами и мы незамедлительно удалим её. Файлы для обмена на трекере предоставлены пользователями сайта, и администрация не несёт ответственности за их содержание. Просьба не заливать файлы, защищенные авторскими правами, а также файлы нелегального содержания!
cron
Вверх страницы
Вниз страницы
ppkBB3cker v.2 © 2008-2011 @ PPK