3d-tracker.ru • Просмотр темы - Звездные войны. Эпизод 1: Скрытая угроза / Star Wars: Episode I - The Phantom Menace (1999-2012) [2d->3D, 1080p, Half OverUnder / Вертикальная анаморфная пара]

Регистрация Имя: Пароль: Запомнить Забыли пароль?



Правила форума





Начать новую тему Ответить на тему  [ Сообщений: 7 ] 
Статистика раздачи
Размер: 7.27 ГБ | Зарегистрирован: 13 май 2017, 15:14 | .torrent скачан: 54
Сиды: 13 [0 байт/сек]    Личи: 13 [0 байт/сек]
Автор Сообщение
 СообщениеДобавлено: 04 дек 2014, 08:14 
Не в сети
Супермодератор
Аватара пользователя
Зарегистрирован: 15 апр 2014, 21:21
Торренты: 519
Раздал: 35.68 ТБ 
Скачал: 1.83 ТБ 
Ратио: 30.562
Спасибо: 3002 / 212
Сообщения: 685
Комментарии: 311
Откуда: РОССИЯ, ЦФО

Название: Звездные войны. Эпизод 1: Скрытая угроза
Оригинальное название: Star Wars: Episode I - The Phantom Menace
Год выпуска: 1999
Год выхода в 3Д: 2012
Жанр: Фантастика, боевик, приключения
Выпущено: США, Lucasfilm Ltd.

Режиссер: Джордж Лукас
В ролях: Лиам Нисон, Эван МакГрегор, Натали Портман, Джейк Ллойд, Иэн МакДайармид, Пернилла Аугуст, Оливер Форд Дэвис, Хью Куарши, Ахмед Бест, Энтони Дэниелс, Кенни Бэйкер, Фрэнк Оз, Теренс Стэмп, Брайан Блессид, Эндрю Сиком, Рэй Парк, Льюис Маклауд, Уорвик Дэвис, Стив Спайрс, Сайлас Карсон, Джером Блейк, Алан Раскоу, Ральф Браун, Селия Имри, Бенедикт Тейлор, Кларенс Смит, Сэмюэл Л. Джексон, Доминик Уэст
О фильме: Рыцаря джедая и его падавана назначают послами для урегулирования разросшегося конфликта между Торговой Федерацией и планетой Набу. Однако переговорам не суждено состояться — Владыка Ситхов приказывает лидерам Федерации уничтожить послов и приступить к оккупации Набу. Избежав смерти, рыцари вместе с королевой Набу Падме Амидалой убегают с планеты в надежде добраться до столицы мира планеты-города Корусанта и добиться там правды, выступив перед сенатом республики. По пути они вынуждены остановиться на пустынной планете Татуин. Здесь джедаи обнаруживают необычного мальчика-раба по имени Энакин Скайуокер, в котором необычайно мощна Сила...

Качество: BDRip (1080p)
Видео: AVC, ~7700 Кбит/с, 23,976 кадра/сек, 1920x1080
Аудио: Русский AC3, 2 ch, 192 Кбит/с
Размер: 7.27 ГБ
Продолжительность: 02:10:06
Перевод: Дублированный

Формат 3D: Half OverUnder / Вертикальная анаморфная пара (16:9) ("без двоения")
Порядок ракурсов: Верхний - первый
Полное имя : E:\AV\Star.Wars.Episode.I.The.Phantom.Menace.3D.1999(2012).3D.mkv
Формат : Matroska
Версия формата : Version 4 / Version 2
Размер файла : 7,27 Гбайт
Дата кодирования : UTC 2017-05-10
Программа кодирования : mkvmerge v7.1.0 ('Good Love') 64bit
Библиотека кодирования : libebml v1.3.0 + libmatroska v1.4.1
DURATION : 02:10:06.336000000

Видео
Идентификатор : 1
Формат : AVC
Формат/Информация : Advanced Video Codec
Профиль формата : High@L4.0
Параметр CABAC формата : Да
Параметр ReFrames формата : 2 кадра
Идентификатор кодека : V_MPEG4/ISO/AVC
Продолжительность : 2 ч. 10 м.
Битрейт : 7646 Кбит/сек
Ширина : 1920 пикселей
Высота : 1080 пикселей
Соотношение сторон : 16:9
Режим частоты кадров : Постоянный
Частота кадров : 23,976 кадра/сек
Цветовое пространство : YUV
Субдискретизация насыщенности : 4:2:0
Битовая глубина : 8 бит
Тип развёртки : Прогрессивная
Бит/(Пиксели*Кадры) : 0.154
Размер потока : 6,95 Гбайт (96%)
Язык : English
Default : Да
Forced : Нет

Аудио
Идентификатор : 2
Формат : AC-3
Формат/Информация : Audio Coding 3
Расширение режима : CM (complete main)
Параметр Endianness формата : Big
Идентификатор кодека : A_AC3
Продолжительность : 2 ч. 10 м.
Вид битрейта : Постоянный
Битрейт : 192 Кбит/сек
Каналы : 2 канала
Расположение каналов : Front: L R
Частота : 48,0 КГц
Битовая глубина : 16 бит
Размер потока : 179 Мбайт (2%)
Язык : Russian
Default : Да
Forced : Нет

Информация о торренте
Торрент:  Зарегистрирован [13 май 2017, 15:14] Для скачивания необходимо Зарегистрироваться!



Если Вы уже зарегистрированы, то авторизуйтесь на трекере!
Статус:  
Размер:  7.27 ГБ (7 803 662 763 байт)
Приватный:  Нет (DHT включён)
Хэш:  ac8e9d332a80d9e399d6
1bf9ee57dd66f98eee68
Здоровье:  100%
.torrent скачан:  54
Как тут качать  Правила, основные инструкции, FAQ-и



_________________


 Профиль  
 
 СообщениеДобавлено: 04 дек 2014, 10:03 
Не в сети
Бывалый
Зарегистрирован: 15 май 2014, 15:05
Торренты: 38
Раздал: 2.97 ТБ 
Скачал: 1.26 ТБ 
Ратио: 2.355
Спасибо: 219 / 737
Сообщения: 138
Комментарии: 135
ОГРОМНОЕ СПАСИБО! :co_ol: :bra_vo: :ki_ss: В копилку!


 Профиль  
 
 СообщениеДобавлено: 13 май 2017, 11:39 
Не в сети
заглянувший
Зарегистрирован: 13 май 2017, 10:44
Торренты: 0
Раздал: 5 ГБ 
Скачал: 0 байт 
Ратио: None.
Спасибо: 0 / 0
Сообщения: 1
Комментарии: 1
здравствуйте,большая просьба перезалить магнет-ссылку или торрент.
Ато скачать не получается ((


 Профиль  
 
 СообщениеДобавлено: 13 май 2017, 15:07 
Не в сети
Супермодератор
Аватара пользователя
Зарегистрирован: 15 апр 2014, 21:21
Торренты: 519
Раздал: 35.68 ТБ 
Скачал: 1.83 ТБ 
Ратио: 30.562
Спасибо: 3002 / 212
Сообщения: 685
Комментарии: 311
Откуда: РОССИЯ, ЦФО
Сделано!
Торрент-файл - ПЕРЕКОДИРОВАН!

_________________


 Профиль  
 
 СообщениеДобавлено: 14 май 2017, 13:14 
Не в сети
Супермодератор
Аватара пользователя
Зарегистрирован: 15 апр 2014, 21:21
Торренты: 519
Раздал: 35.68 ТБ 
Скачал: 1.83 ТБ 
Ратио: 30.562
Спасибо: 3002 / 212
Сообщения: 685
Комментарии: 311
Откуда: РОССИЯ, ЦФО
premius писал(а):
большая просьба перезалить магнет-ссылку или торрент.

Ну и дальше что!???
Я на раздаче вечно висеть - НЕ БУДУ!

_________________


 Профиль  
 
 СообщениеДобавлено: 05 фев 2018, 21:03 
Не в сети
заглянувший
Зарегистрирован: 05 фев 2018, 20:54
Торренты: 0
Раздал: 5 ГБ 
Скачал: 0 байт 
Ратио: None.
Спасибо: 0 / 0
Сообщения: 1
Комментарии: 1
Скажите, а торрент еще будет раздаваться?


 Профиль  
 
 СообщениеДобавлено: 09 фев 2018, 09:08 
Не в сети
Бывалый
Зарегистрирован: 07 июн 2014, 08:13
Торренты: 70
Раздал: 2.18 ТБ 
Скачал: 1.07 ТБ 
Ратио: 2.034
Спасибо: 301 / 651
Сообщения: 178
Комментарии: 174
SOLdAta - нет!
Раздавать некому!!!!


 Профиль  
 
Показать сообщения за:  Поле сортировки  
Начать новую тему Ответить на тему  [ Сообщений: 7 ] 


Кто сейчас на трекере

Сейчас этот форум просматривают: нет зарегистрированных пользователей и гости: 4


Вы не можете начинать темы
Вы не можете отвечать на сообщения
Вы не можете редактировать свои сообщения
Вы не можете удалять свои сообщения
Вы не можете добавлять вложения

Найти:


Правообладателям

!ВНИМАНИЕ!
Ресурс не предоставляет электронные версии произведений, а занимается лишь коллекционированием и каталогизацией ссылок, присылаемых и публикуемых на форуме нашими читателями. Если вы являетесь правообладателем какого-либо представленного материала и не желаете чтобы ссылка на него находилась в нашем каталоге, свяжитесь с нами и мы незамедлительно удалим её. Файлы для обмена на трекере предоставлены пользователями сайта, и администрация не несёт ответственности за их содержание. Просьба не заливать файлы, защищенные авторскими правами, а также файлы нелегального содержания!
cron
Вверх страницы
Вниз страницы
ppkBB3cker v.2 © 2008-2011 @ PPK