3d-tracker.ru • Просмотр темы - Чужой против хищника в 3Д / Alien vs. Predator 3D (2004) [BDRip, 2d / 3D, 1080p, HSBS / Горизонтальная анаморфная стереопара]

Регистрация Имя: Пароль: Запомнить Забыли пароль?



Правила форума





Начать новую тему Ответить на тему  [ Сообщений: 2 ] 
Статистика раздачи
Размер: 5.95 ГБ | Зарегистрирован: 30 июн 2016, 10:11 | .torrent скачан: 18
Сиды: 3 [0 байт/сек]    Личи: 3 [0 байт/сек]
Автор Сообщение
 СообщениеДобавлено: 30 июн 2016, 10:11 
Не в сети
Супермодератор
Аватара пользователя
Зарегистрирован: 15 апр 2014, 21:21
Торренты: 519
Раздал: 35.97 ТБ 
Скачал: 1.83 ТБ 
Ратио: 30.723
Спасибо: 3011 / 212
Сообщения: 685
Комментарии: 311
Откуда: РОССИЯ, ЦФО

Название: Чужой против Хищника
Оригинальное название: Alien vs. Predator
Год выпуска: 2004
Жанр: Фантастика, боевик, приключения, комикс
Выпущено: США, Германия, Чехия, Великобритания, 20th Century Fox Film Corporation, Brandywine Productions Ltd

Режиссер: Пол У. С. Андерсон
В ролях: Санаа Лэтэн, Рауль Бова, Лэнс Хенриксен, Юэн Бремнер, Колин Сэлмон, Томми Флэнаган, Джозеф Рай, Агат Де Ла Булае, Карстен Норгаард, Сэм Тротон, Пётр Якл, Павел Бездек, Киран Бью, Карстен Войт, Ян Павел Филипенски, Адриан Буше, Энди Лукас, Лиз Мэй Брайс, Гленн Конрой, Оин МакКарти, Карима Эдебайб, Том Вудрафф мл., Иэн Уайт
О фильме: Наши дни. Группа ученых отправляется в Антарктиду, чтобы отыскать колыбель цивилизации, царившей на Земле многие тысячелетия назад. Под толщей льда они находят пирамиды, в которых обнаруживают человеческие скелеты и следы жизнедеятельности чужих. Однако они еще не знают, что уже находятся под колпаком у хозяев этого города - хищников, и их дни сочтены. Человеческая приманка поможет хищникам, наконец, завершить войну двух космических цивилизаций…

Размер: 5.95 ГБ
Продолжительность: 01:25:22
Перевод: Дублированный

Просмотр фильма в 3D и 2D на Full HD 3DTV

Качество: BDRip (1080р) by SOLdAt
Видео: AVC, 9403 Кбит/с, 24,000 fps
Аудио: Русский AC3, 6 ch, 384 Кбит/с

Формат 3D: Half SideBySide / Горизонтальная анаморфная стереопара
Порядок ракурсов: Левый-первый
Полное имя : F:\A&V\4uzhoi.vs.hicshnika.mkv
Формат : Matroska
Версия формата : Version 1
Размер файла : 5,95 Гбайт
Продолжительность : 1 ч. 25 м.
Общий поток : 9986 Кбит/сек
Библиотека кодирования : libebml v0.7.8 + libmatroska v0.8.1

Видео
Идентификатор : 1
Формат : AVC
Формат/Информация : Advanced Video Codec
Профиль формата : High@L4.0
Параметр CABAC формата : Да
Параметр ReFrames формата : 2 кадра
Идентификатор кодека : V_MS/VFW/FOURCC / H264
Продолжительность : 1 ч. 25 м.
Битрейт : 9403 Кбит/сек
Ширина : 1920 пикселей
Высота : 1080 пикселей
Соотношение сторон : 16:9
Режим частоты кадров : Постоянный
Частота кадров : 24,000 кадра/сек
Цветовое пространство : YUV
Субдискретизация насыщенности : 4:2:0
Битовая глубина : 8 бит
Тип развёртки : Прогрессивная
Бит/(Пиксели*Кадры) : 0.189
Размер потока : 5,61 Гбайт (94%)
Язык : English
Default : Да
Forced : Нет

Аудио
Идентификатор : 2
Формат : AC-3
Формат/Информация : Audio Coding 3
Расширение режима : CM (complete main)
Параметр Endianness формата : Big
Идентификатор кодека : A_AC3
Продолжительность : 1 ч. 25 м.
Вид битрейта : Постоянный
Битрейт : 384 Кбит/сек
Каналы : 6 каналов
Расположение каналов : Front: L C R, Side: L R, LFE
Частота : 48,0 КГц
Битовая глубина : 16 бит
Размер потока : 234 Мбайт (4%)
Язык : English
Default : Да
Forced : Нет

Информация о торренте
Торрент:  Зарегистрирован [30 июн 2016, 10:11] Для скачивания необходимо Зарегистрироваться!



Если Вы уже зарегистрированы, то авторизуйтесь на трекере!
Статус:  
Размер:  5.95 ГБ (6 393 790 485 байт)
Приватный:  Нет (DHT включён)
Хэш:  80c34f6b2ff9189a65ec
3b5b45b242805949815f
Здоровье:  100%
.torrent скачан:  18
Как тут качать  Правила, основные инструкции, FAQ-и



_________________


 Профиль  
 
 СообщениеДобавлено: 27 фев 2018, 16:38 
Не в сети
заглянувший
Зарегистрирован: 27 фев 2018, 16:34
Торренты: 0
Раздал: 11.43 ГБ 
Скачал: 12.25 ГБ 
Ратио: 0.933
Спасибо: 0 / 1
Сообщения: 1
Комментарии: 1
Встаньте на раздачу, заранее благодарю)


 Профиль  
 
Показать сообщения за:  Поле сортировки  
Начать новую тему Ответить на тему  [ Сообщений: 2 ] 


Кто сейчас на трекере

Сейчас этот форум просматривают: Bing [Bot], Yandex [Bot] и гости: 4


Вы не можете начинать темы
Вы не можете отвечать на сообщения
Вы не можете редактировать свои сообщения
Вы не можете удалять свои сообщения
Вы не можете добавлять вложения

Найти:


Правообладателям

!ВНИМАНИЕ!
Ресурс не предоставляет электронные версии произведений, а занимается лишь коллекционированием и каталогизацией ссылок, присылаемых и публикуемых на форуме нашими читателями. Если вы являетесь правообладателем какого-либо представленного материала и не желаете чтобы ссылка на него находилась в нашем каталоге, свяжитесь с нами и мы незамедлительно удалим её. Файлы для обмена на трекере предоставлены пользователями сайта, и администрация не несёт ответственности за их содержание. Просьба не заливать файлы, защищенные авторскими правами, а также файлы нелегального содержания!
cron
Вверх страницы
Вниз страницы
ppkBB3cker v.2 © 2008-2011 @ PPK