3d-tracker.ru • Просмотр темы - Хардкор в 3Д / Hardcore Henry 3D (2015) [2d->3D, Rip, 1080p, Half OverUnder / Вертикальная анаморфная стереопара]

Регистрация Имя: Пароль: Запомнить Забыли пароль?



Правила форума





Начать новую тему Ответить на тему  [ Сообщений: 6 ] 
Статистика раздачи
Размер: 5.11 ГБ | Зарегистрирован: 05 июл 2016, 10:11 | .torrent скачан: 128
Сиды: 37 [0 байт/сек]    Личи: 15 [0 байт/сек]
Автор Сообщение
 СообщениеДобавлено: 05 июл 2016, 10:11 
Не в сети
Супермодератор
Аватара пользователя
Зарегистрирован: 15 апр 2014, 21:21
Торренты: 519
Раздал: 35.86 ТБ 
Скачал: 1.83 ТБ 
Ратио: 30.663
Спасибо: 3008 / 212
Сообщения: 685
Комментарии: 311
Откуда: РОССИЯ, ЦФО

2d->3D
18+
Название: Хардкор
Оригинальное название: Hardcore Henry
Год выхода: 2015
Жанр: боевик, фантастика

Режиссёр фильма: Илья Найшуллер
Актёры: Шарлто Копли, Данила Козловский, Хейли Беннетт, Андрей Дементьев, Сергей Шнуров, Кирилл Серебренников, Александр Паль, Светлана Устинова, Даша Чаруша, Равшана Куркова
О фильме: В воздушной лаборатории над Москвой проводятся военно-научные эксперименты по созданию людей-киборгов. Научный сотрудник Эстель собирает киборга Генри, который пробуждается в своей новой форме и единственное, что помнит из прошлой жизни — только их с Эстель любовь друг к другу. Не успев собрать мозаику воспоминаний, Генри теряет девушку по воле слепого злодея, альбиноса Акана, который похищает Эстель с помощью телекинеза. Герой бежит по ее следам, встречая на пути таинственного незнакомца Джимми, который спасает Генри жизнь и передает ему ценную информацию, способную пролить свет на прошлое киборга и место, где находится Эстель. Но дорога к ней будет полна опасностей…

Страна: Россия, США
Продолжительность: 01:28:23
Перевод: Дублированный [Line]
Субтитры: Английские

Качество: Rip (1080p) by SOLdAt
Видео: AVC, 7857 Кбит/с, 1920х1080, 23.976 кадр/с
Аудио: Pусский AC3, 2 ch, 256 Кбит/с
Размер: 5.11 ГБ

Формат 3D: Half OverUnder / Вертикальная анаморфная стереопара ("без двоения")
Порядок ракурсов: Верхний ракурс - первый
Полное имя : F:\A&V\Hardcore.Henry.2015.1080p.2d.v.3D.H-OU.mkv
Формат : Matroska
Версия формата : Version 4 / Version 2
Размер файла : 5,11 Гбайт
Продолжительность : 1 ч. 28 м.
Общий поток : 8278 Кбит/сек
Дата кодирования : UTC 2016-07-05 03:40:18
Программа кодирования : mkvmerge v7.1.0 ('Good Love') 64bit
Библиотека кодирования : libebml v1.3.0 + libmatroska v1.4.1
DURATION : 01:28:22.670000000
Видео
Идентификатор : 1
Формат : AVC
Формат/Информация : Advanced Video Codec
Профиль формата : High@L4.0
Параметр CABAC формата : Да
Параметр ReFrames формата : 2 кадра
Идентификатор кодека : V_MPEG4/ISO/AVC
Продолжительность : 1 ч. 28 м.
Битрейт : 7857 Кбит/сек
Ширина : 1920 пикселей
Высота : 1080 пикселей
Соотношение сторон : 16:9
Режим частоты кадров : Постоянный
Частота кадров : 23,976 кадра/сек
Цветовое пространство : YUV
Субдискретизация насыщенности : 4:2:0
Битовая глубина : 8 бит
Тип развёртки : Прогрессивная
Бит/(Пиксели*Кадры) : 0.158
Размер потока : 4,85 Гбайт (95%)
Заголовок : 1080p, hou
Язык : English
Default : Да
Forced : Нет
Аудио
Идентификатор : 2
Формат : AC-3
Формат/Информация : Audio Coding 3
Расширение режима : CM (complete main)
Параметр Endianness формата : Big
Идентификатор кодека : A_AC3
Продолжительность : 1 ч. 28 м.
Вид битрейта : Постоянный
Битрейт : 256 Кбит/сек
Каналы : 2 канала
Расположение каналов : Front: L R
Частота : 48,0 КГц
Битовая глубина : 16 бит
Размер потока : 162 Мбайт (3%)
Заголовок : 2 ch, 256 kb/s (Line)
Язык : Russian
Default : Да
Forced : Нет

Информация о торренте
Торрент:  Зарегистрирован [05 июл 2016, 10:11] Для скачивания необходимо Зарегистрироваться!



Если Вы уже зарегистрированы, то авторизуйтесь на трекере!
Статус:  
Размер:  5.11 ГБ (5 486 942 588 байт)
Приватный:  Нет (DHT включён)
Хэш:  0c9fbce64d4cfa0f4243
e35d25c0f3de0c15e226
Здоровье:  100%
.torrent скачан:  128
Как тут качать  Правила, основные инструкции, FAQ-и



_________________


 Профиль  
 
 СообщениеДобавлено: 10 июл 2016, 00:22 
Не в сети
заглянувший
Аватара пользователя
Зарегистрирован: 03 мар 2016, 15:54
Торренты: 0
Раздал: 941.41 ГБ 
Скачал: 720.24 ГБ 
Ратио: 1.307
Спасибо: 0 / 166
Сообщения: 12
Комментарии: 15
Откуда: москва
:co_ol: :-):


 Профиль  
 
 СообщениеДобавлено: 07 авг 2017, 13:38 
Не в сети
заглянувший
Зарегистрирован: 07 авг 2017, 13:34
Торренты: 0
Раздал: 6.72 ГБ 
Скачал: 5.11 ГБ 
Ратио: None.
Спасибо: 0 / 1
Сообщения: 1
Комментарии: 1
Не могу скачать... Висит в торренте фраза: Подключение к пирам... А дальше ничего не происходит :-(


 Профиль  
 
 СообщениеДобавлено: 07 авг 2017, 14:23 
Не в сети
Бывалый
Зарегистрирован: 07 июн 2014, 08:13
Торренты: 70
Раздал: 2.18 ТБ 
Скачал: 1.07 ТБ 
Ратио: 2.034
Спасибо: 303 / 651
Сообщения: 178
Комментарии: 174
Mr.Snake789 писал(а):
Не могу скачать..

Просто торрент мёртвый!
Попробуйте скачать отсюда
http://torrent3d.ru/download.php?id=523 ... y_3d_(2015)_[2d-%E3d,_rip,_1080p,_half_overunder_/_vertikalnaya_anamorfnaya_stereopara]


 Профиль  
 
 СообщениеДобавлено: 07 авг 2017, 20:52 
Не в сети
Супермодератор
Аватара пользователя
Зарегистрирован: 15 апр 2014, 21:21
Торренты: 519
Раздал: 35.86 ТБ 
Скачал: 1.83 ТБ 
Ратио: 30.663
Спасибо: 3008 / 212
Сообщения: 685
Комментарии: 311
Откуда: РОССИЯ, ЦФО
Перейдите по указанной выше ссылке на torrent3d.ru и скачайте там торрент на этот релиз

_________________


 Профиль  
 
 СообщениеДобавлено: 25 янв 2018, 11:09 
Не в сети
заглянувший
Зарегистрирован: 25 янв 2018, 11:06
Торренты: 0
Раздал: 5 ГБ 
Скачал: 0 байт 
Ратио: None.
Спасибо: 0 / 0
Сообщения: 1
Комментарии: 1
Mr.Snake789 писал(а):
Не могу скачать... Висит в торренте фраза: Подключение к пирам... А дальше ничего не происходит :-(

Аналогично. Хотя 31 сид показан.


 Профиль  
 
Показать сообщения за:  Поле сортировки  
Начать новую тему Ответить на тему  [ Сообщений: 6 ] 


Кто сейчас на трекере

Сейчас этот форум просматривают: нет зарегистрированных пользователей и гости: 2


Вы не можете начинать темы
Вы не можете отвечать на сообщения
Вы не можете редактировать свои сообщения
Вы не можете удалять свои сообщения
Вы не можете добавлять вложения

Найти:
 cron

Правообладателям

!ВНИМАНИЕ!
Ресурс не предоставляет электронные версии произведений, а занимается лишь коллекционированием и каталогизацией ссылок, присылаемых и публикуемых на форуме нашими читателями. Если вы являетесь правообладателем какого-либо представленного материала и не желаете чтобы ссылка на него находилась в нашем каталоге, свяжитесь с нами и мы незамедлительно удалим её. Файлы для обмена на трекере предоставлены пользователями сайта, и администрация не несёт ответственности за их содержание. Просьба не заливать файлы, защищенные авторскими правами, а также файлы нелегального содержания!
cron
Вверх страницы
Вниз страницы
ppkBB3cker v.2 © 2008-2011 @ PPK