3d-tracker.ru • Просмотр темы - Дэдпул в 3Д / Deadpool 3D (2016) [BDRip, 1080p, Half Side-by-Side / Горизонтальная анаморфная стереопара]

Регистрация Имя: Пароль: Запомнить Забыли пароль?



Правила форума





Начать новую тему Ответить на тему  [ 1 сообщение ] 
Статистика раздачи
Размер: 8.39 ГБ | Зарегистрирован: 17 окт 2016, 09:37 | .torrent скачан: 81
Сиды: 14 [0 байт/сек]    Личи: 29 [0 байт/сек]
Автор Сообщение
 СообщениеДобавлено: 17 окт 2016, 09:37 
Не в сети
Супермодератор
Аватара пользователя
Зарегистрирован: 15 апр 2014, 21:21
Торренты: 438
Раздал: 33.29 ТБ 
Скачал: 1.83 ТБ 
Ратио: 29.262
Спасибо: 2466 / 165
Сообщения: 580
Комментарии: 259
Откуда: РОССИЯ, ЦФО

18+
Название: Дэдпул
Оригинальное название: Deadpool
Год выпуска: 2016
Жанр: Фантастика, фэнтези, боевик, комедия, приключения
Выпущено: США, Канада 20th Century Fox Film Corporation

Режиссер: Тим Миллер
В ролях: Райан Рейнольдс, Морена Баккарин, Эд Скрейн, ТиДжей Миллер, Джина Карано, Брианна Хилдебранд, Стефан Капичич, Лесли Уггэмс, Джед Риис, Каран Сони, Майкл Беняер, Стайл Дэйн, Кайл Кэсси, Тэйлор Хиксон, Айзи, Наика Туссэн, Рендал Ридер, Айзек С. Синглтон мл., Джастин Шиппелт, Донна Ямамото
О фильме: У бывшего спецназовца Уэйда Уилсона было все, о чем можно только мечтать: перспективная высокооплачиваемая работа, отдельная жилплощадь и неземной красоты девушка, работающая в местном стриптиз-клубе. Но однажды случается непоправимое - у молодого человека диагностируют рак. В результате несчастного случая при прохождении курса вакуумной химиотерапии его внешность приобретает очертания кошмаров Фредди Крюгера, а скорость генерирования шуток черного юмора взлетает в стратосферу. Сможет ли его девушка пережить крутую смену имиджа любимого человека? Сможет ли он сам удержать свою нестабильную психику на плаву и не скатиться по наклонной?
Просмотр фильма в 3D и 2D на Full HD 3DTV & стереоскопик плейере!
Качество: BDRip (1080p)
Видео: AVC, 11300 Кбит/с, 1920x1080, 24,000 fps
Аудио: Русский AC3, 6 ch, 448 Кбит/с
Размер: 8.39 Гб
Продолжительность: 01:40:26
Перевод: Дублированный

Формат 3D: Half Side-by-Side / Горизонтальная анаморфная стереопара (16:9)
Порядок ракурсов: левый ракурс - первый

Полное имя : E:\AV\Dedpul.3D.2016.BDRip.1080p.HSBS.mkv
Формат : Matroska
Версия формата : Version 4 / Version 2
Размер файла : 8,39 Гбайт
Продолжительность : 1 ч. 40 м.
Общий поток : 12,0 Мбит/сек
Дата кодирования : UTC 2016-10-17 04:28:34
Программа кодирования : mkvmerge v7.1.0 ('Good Love') 64bit
Библиотека кодирования : libebml v1.3.0 + libmatroska v1.4.1
DURATION : 01:40:26.047000000

Видео
Идентификатор : 1
Формат : AVC
Формат/Информация : Advanced Video Codec
Профиль формата : High@L4.0
Параметр CABAC формата : Да
Параметр ReFrames формата : 2 кадра
Параметр GOP формата : M=3, N=18
Идентификатор кодека : V_MPEG4/ISO/AVC
Продолжительность : 1 ч. 40 м.
Битрейт : 11,3 Мбит/сек
Ширина : 1920 пикселей
Высота : 1080 пикселей
Соотношение сторон : 16:9
Режим частоты кадров : Постоянный
Частота кадров : 24,000 кадра/сек
Цветовое пространство : YUV
Субдискретизация насыщенности : 4:2:0
Битовая глубина : 8 бит
Тип развёртки : Прогрессивная
Бит/(Пиксели*Кадры) : 0.227
Размер потока : 7,91 Гбайт (94%)
Заголовок : 3D-1080p-HSBS(просмотр возможен в 2Д-при отключении на 3ДТВ функции 3Д)
Язык : English
Default : Да
Forced : Нет

Аудио
Идентификатор : 2
Формат : AC-3
Формат/Информация : Audio Coding 3
Расширение режима : CM (complete main)
Параметр Endianness формата : Big
Идентификатор кодека : A_AC3
Продолжительность : 1 ч. 40 м.
Вид битрейта : Постоянный
Битрейт : 448 Кбит/сек
Каналы : 6 каналов
Расположение каналов : Front: L C R, Side: L R, LFE
Частота : 48,0 КГц
Битовая глубина : 16 бит
Размер потока : 322 Мбайт (4%)
Заголовок : 6 ch, 448 kb/s
Язык : Russian
Default : Да
Forced : Нет

Информация о торренте
Торрент:  Зарегистрирован [17 окт 2016, 09:37] Для скачивания необходимо Зарегистрироваться!



Если Вы уже зарегистрированы, то авторизуйтесь на трекере!
Статус:  
Размер:  8.39 ГБ (9 010 810 717 байт)
Приватный:  Нет (DHT включён)
Хэш:  6a0d9d2e375bb109682f
725815c6ef7258715ef5
Здоровье:  48%
.torrent скачан:  81
Как тут качать  Правила, основные инструкции, FAQ-и



_________________


 Профиль  
 
Показать сообщения за:  Поле сортировки  
Начать новую тему Ответить на тему  [ 1 сообщение ] 


Кто сейчас на трекере

Сейчас этот форум просматривают: Oleg61 и гости: 1


Вы не можете начинать темы
Вы не можете отвечать на сообщения
Вы не можете редактировать свои сообщения
Вы не можете удалять свои сообщения
Вы не можете добавлять вложения

Найти:


Правообладателям

!ВНИМАНИЕ!
Ресурс не предоставляет электронные версии произведений, а занимается лишь коллекционированием и каталогизацией ссылок, присылаемых и публикуемых на форуме нашими читателями. Если вы являетесь правообладателем какого-либо представленного материала и не желаете чтобы ссылка на него находилась в нашем каталоге, свяжитесь с нами и мы незамедлительно удалим её. Файлы для обмена на трекере предоставлены пользователями сайта, и администрация не несёт ответственности за их содержание. Просьба не заливать файлы, защищенные авторскими правами, а также файлы нелегального содержания!
cron
Вверх страницы
Вниз страницы
ppkBB3cker v.2 © 2008-2011 @ PPK