3d-tracker.ru • Просмотр темы - Железная девушка: Убииственное оружие в 3Д / Iron Girl: Ultimate Weapon 3D (2015) [BDRip, 1080p, HSBS / Горизонтальная анаморфная стереопара]

Регистрация Имя: Пароль: Запомнить Забыли пароль?



Правила форума





Начать новую тему Ответить на тему  [ 1 сообщение ] 
Статистика раздачи
Размер: 4.82 ГБ | Зарегистрирован: 19 окт 2016, 10:39 | .torrent скачан: 14
Сиды: 0 [0 байт/сек]    Личи: 9 [0 байт/сек]
Автор Сообщение
 СообщениеДобавлено: 19 окт 2016, 10:39 
Не в сети
Модератор
Аватара пользователя
Зарегистрирован: 30 авг 2016, 14:54
Торренты: 76
Раздал: 277.55 ГБ 
Скачал: 16.3 ГБ 
Ратио: 17.024
Спасибо: 357 / 245
Сообщения: 78
Комментарии: 7

18+
Название: Железная девушка: Убийственное оружие
Оригинальное название: Iron Girl: Ultimate Weapon
Год выхода: 2015
Жанр: фантастика, боевик, комедия

Режиссер: Кенити Фудзивара
В ролях: Асами, Кирара Асука, Хироаки Иванага, Рюносукэ Кавай, Асука Киши, Юри Моришита
О фильме: В недалеком будущем, в мире царит беззаконие, человечество находится на грани вымирания, а города контролируют банды головорезов. Курису Саотоме (Асука Кирара) - наемная убийца. Она носит бронированный костюм, обладающий большой силой, и известна под именем «Стальная телка». Курису Саотоме не помнит кто она и откуда приехала. Чтобы восстановить память, она продолжает свою одинокую борьбу, истребляя головорезов.

Просмотр фильма в 3D и 2D на Full HD 3DTV & стереоскопик плейере!

Выпущено: Япония / Shibuya Productions
Продолжительность: 01:04:07
Озвучивание: Любительское (двухголосое) [den904 & DeadSno], перевод [akira9]

Качество: BDRip (1080р)
Видео: AVC, 10300 Кбит/с, 1920x1080, 24,000 кадр/сек
Аудио: Русский AC3, 2 ch, 256 Кбит/с
Размер: 4,82 Gb

Формат 3D: Half SideBySide / Горизонтальная анаморфная стереопара
Порядок ракурсов: Левый-первый

Полное имя : J:\AandV\Iron Girl.Ultimate Weapon.2015.3D.1080p.HSBS.mkv
Формат : Matroska
Версия формата : Version 4 / Version 2
Размер файла : 4,82 Гбайт
Продолжительность : 1 ч. 4 м.
Общий поток : 10,8 Мбит/сек
Дата кодирования : UTC 2016-10-19 02:52:51
Программа кодирования : mkvmerge v8.3.0 ('Over the Horizon') 64bit
Библиотека кодирования : libebml v1.3.1 + libmatroska v1.4.2
DURATION : 01:04:07.164000000

Видео
Идентификатор : 1
Формат : AVC
Формат/Информация : Advanced Video Codec
Профиль формата : High@L4.0
Параметр CABAC формата : Да
Параметр ReFrames формата : 2 кадра
Параметр GOP формата : M=3, N=18
Идентификатор кодека : V_MPEG4/ISO/AVC
Продолжительность : 1 ч. 4 м.
Битрейт : 10,3 Мбит/сек
Ширина : 1920 пикселей
Высота : 1080 пикселей
Соотношение сторон : 16:9
Режим частоты кадров : Постоянный
Частота кадров : 24,000 кадра/сек
Цветовое пространство : YUV
Субдискретизация насыщенности : 4:2:0
Битовая глубина : 8 бит
Тип развёртки : Прогрессивная
Бит/(Пиксели*Кадры) : 0.207
Размер потока : 4,61 Гбайт (96%)
Заголовок : 3D-1080p-HSBS
Язык : English
Default : Да
Forced : Нет

Аудио
Идентификатор : 2
Формат : AC-3
Формат/Информация : Audio Coding 3
Расширение режима : CM (complete main)
Параметр Endianness формата : Big
Идентификатор кодека : A_AC3
Продолжительность : 1 ч. 4 м.
Вид битрейта : Постоянный
Битрейт : 256 Кбит/сек
Каналы : 2 канала
Расположение каналов : Front: L R
Частота : 48,0 КГц
Битовая глубина : 16 бит
Размер потока : 117 Мбайт (2%)
Заголовок : 2ch, 256 kb/s
Язык : English
Default : Да
Forced : Нет

Информация о торренте
Торрент:  Зарегистрирован [19 окт 2016, 10:39] Для скачивания необходимо Зарегистрироваться!



Если Вы уже зарегистрированы, то авторизуйтесь на трекере!
Статус:  
Размер:  4.82 ГБ (5 172 501 427 байт)
Приватный:  Нет (DHT включён)
Хэш:  ef84b5483fb425b324cd
b330699aa08961feb25c
Здоровье:  ???%
.torrent скачан:  14
Как тут качать  Правила, основные инструкции, FAQ-и



_________________


 Профиль  
 
Показать сообщения за:  Поле сортировки  
Начать новую тему Ответить на тему  [ 1 сообщение ] 


Кто сейчас на трекере

Сейчас этот форум просматривают: MSNbot Media и гости: 1


Вы не можете начинать темы
Вы не можете отвечать на сообщения
Вы не можете редактировать свои сообщения
Вы не можете удалять свои сообщения
Вы не можете добавлять вложения

Найти:


Правообладателям

!ВНИМАНИЕ!
Ресурс не предоставляет электронные версии произведений, а занимается лишь коллекционированием и каталогизацией ссылок, присылаемых и публикуемых на форуме нашими читателями. Если вы являетесь правообладателем какого-либо представленного материала и не желаете чтобы ссылка на него находилась в нашем каталоге, свяжитесь с нами и мы незамедлительно удалим её. Файлы для обмена на трекере предоставлены пользователями сайта, и администрация не несёт ответственности за их содержание. Просьба не заливать файлы, защищенные авторскими правами, а также файлы нелегального содержания!
cron
Вверх страницы
Вниз страницы
ppkBB3cker v.2 © 2008-2011 @ PPK