3d-tracker.ru • Просмотр темы - 31: Праздник смерти в 3Д / 31 3D (2016) [2d->3D, 720p, Half OverUnder / Вертикальная анаморфная стереопара]

Регистрация Имя: Пароль: Запомнить Забыли пароль?



Правила форума





Начать новую тему Ответить на тему  [ 1 сообщение ] 
Статистика раздачи
Размер: 3.92 ГБ | Зарегистрирован: 19 окт 2016, 14:12 | .torrent скачан: 5
Сиды: 0 [0 байт/сек]    Личи: 0 [0 байт/сек]
Автор Сообщение
 СообщениеДобавлено: 19 окт 2016, 14:12 
Не в сети
Модератор
Зарегистрирован: 30 авг 2016, 14:54
Торренты: 55
Раздал: 266.49 ГБ 
Скачал: 16.3 ГБ 
Ратио: 16.346
Спасибо: 251 / 157
Сообщения: 58
Комментарии: 6

Название: 31: Праздник смерти
Оригинальное название: 31
Год выпуска: 2016
Жанр: Триллер, слэшер

Режиссер: Роб Зомби
В ролях: Шери Мун Зомби, Джеффри Дэниэл, Филлипс, Лоуренс Хилтон-Джакобс, Мег Фостер, Кевин Джексон, Малкольм МакДауэлл, Джейн Карр, Джуди Гисон, Ричард Брэйк, Панчо Молер
О фильме: История пяти людей, которые были похищены за пять дней до Хэллоуина и оказались пленниками в сотворенном человеком аду. Там им предстоит сыграть на выживание в жестокой игре под названием «31».

Страна: США, Великобритания
Студия: Bow and Arrow Entertainment, Palm-Star Entertainment, Protagonist Pictures
Перевод: Профессиональный (многоголосый, закадровый) | iTunes
Продолжительность: 01:34:20

Качество: Rip (720р)
Видео: AVC, 5777 кбит/с, 23,976 fps
Аудио: Русский AC3, 2 ch, 192 Кбит/с
Размер: 3.92 ГБ

Формат 3D: Half OverUnder / Вертикальная анаморфная стереопара ("без двоения")
Порядок ракурсов: Верхний-первый
Полное имя : E:\AV\31.2016.2d.in.3D.720p.HOU.mkv
Формат : Matroska
Версия формата : Version 4 / Version 2
Размер файла : 3,92 Гбайт
Продолжительность : 1 ч. 34 м.
Общий поток : 5950 Кбит/сек
Дата кодирования : UTC 2016-10-18
Программа кодирования : mkvmerge v7.1.0 ('Good Love') 64bit
Библиотека кодирования : libebml v1.3.0 + libmatroska v1.4.1
DURATION : 01:34:20.117000000

Видео
Идентификатор : 1
Формат : AVC
Формат/Информация : Advanced Video Codec
Профиль формата : Main@L3.1
Параметр CABAC формата : Да
Параметр ReFrames формата : 4 кадра
Идентификатор кодека : V_MPEG4/ISO/AVC
Продолжительность : 1 ч. 34 м.
Битрейт : 5777 Кбит/сек
Ширина : 1280 пикселей
Высота : 720 пикселей
Соотношение сторон : 16:9
Режим частоты кадров : Постоянный
Частота кадров : 23,976 кадра/сек
Цветовое пространство : YUV
Субдискретизация насыщенности : 4:2:0
Битовая глубина : 8 бит
Тип развёртки : Прогрессивная
Бит/(Пиксели*Кадры) : 0.261
Размер потока : 3,72 Гбайт (95%)
Заголовок : 720p, hou
Библиотека кодирования : x264 core 139 ncmd rdtn
Язык : English
Default : Да
Forced : Нет

Аудио
Идентификатор : 2
Формат : AC-3
Формат/Информация : Audio Coding 3
Расширение режима : CM (complete main)
Параметр Endianness формата : Big
Идентификатор кодека : A_AC3
Продолжительность : 1 ч. 34 м.
Вид битрейта : Постоянный
Битрейт : 192 Кбит/сек
Каналы : 2 канала
Расположение каналов : Front: L R
Частота : 48,0 КГц
Битовая глубина : 16 бит
Размер потока : 130 Мбайт (3%)
Заголовок : 2 ch, 192 kb/s
Язык : Russian
Default : Да
Forced : Нет

Информация о торренте
Торрент:  Зарегистрирован [19 окт 2016, 14:12] Для скачивания необходимо Зарегистрироваться!



Если Вы уже зарегистрированы, то авторизуйтесь на трекере!
Статус:  
Размер:  3.92 ГБ (4 210 026 043 байт)
Приватный:  Нет (DHT включён)
Хэш:  9b53c90216ce448fe3c7
8c5fa9bc63e1c49e218c
Здоровье:  0%
.torrent скачан:  5
Как тут качать  Правила, основные инструкции, FAQ-и




 Профиль  
 
Показать сообщения за:  Поле сортировки  
Начать новую тему Ответить на тему  [ 1 сообщение ] 


Кто сейчас на трекере

Сейчас этот форум просматривают: нет зарегистрированных пользователей и гости: 7


Вы не можете начинать темы
Вы не можете отвечать на сообщения
Вы не можете редактировать свои сообщения
Вы не можете удалять свои сообщения
Вы не можете добавлять вложения

Найти:


Правообладателям

!ВНИМАНИЕ!
Ресурс не предоставляет электронные версии произведений, а занимается лишь коллекционированием и каталогизацией ссылок, присылаемых и публикуемых на форуме нашими читателями. Если вы являетесь правообладателем какого-либо представленного материала и не желаете чтобы ссылка на него находилась в нашем каталоге, свяжитесь с нами и мы незамедлительно удалим её. Файлы для обмена на трекере предоставлены пользователями сайта, и администрация не несёт ответственности за их содержание. Просьба не заливать файлы, защищенные авторскими правами, а также файлы нелегального содержания!
cron
Вверх страницы
Вниз страницы
ppkBB3cker v.2 © 2008-2011 @ PPK