3d-tracker.ru • Просмотр темы - Галлоуз Хилл в 3Д / Gallows Hill 3D (2013) [BDRip, 1080p, HSBS / Горизонтальная анаморфная стереопара]

Регистрация Имя: Пароль: Запомнить Забыли пароль?



Правила форума





Начать новую тему Ответить на тему  [ Сообщений: 3 ] 
Статистика раздачи
Размер: 6.83 ГБ | Зарегистрирован: 20 окт 2016, 23:01 | .torrent скачан: 4
Сиды: 1 [0 байт/сек]    Личи: 0 [0 байт/сек]
Автор Сообщение
 СообщениеДобавлено: 20 окт 2016, 23:01 
Не в сети
Модератор
Аватара пользователя
Зарегистрирован: 30 авг 2016, 14:54
Торренты: 122
Раздал: 511.48 ГБ 
Скачал: 32.89 ГБ 
Ратио: 15.550
Спасибо: 714 / 348
Сообщения: 133
Комментарии: 24

Название: Галлоуз Хилл
Оригинальное название: Gallows Hill
Год выпуска: 2013
Жанр: Ужасы, триллер, детектив
Выпущено: США, A Bigger Boat, Bowery Hills Entertainment, Launchpad Productions, RCN Films & e-nnovva

Режиссер: Виктор Гарсия
В ролях: Питер Фачинелли, София Майлс, Наталия Рамос, Каролина Гуерра, Себастьян Мартинез, Густаво Ангарита, Хуан Пабло Гамбоа, Джульета Салазар, Татьяна Рентериа
О фильме: Герой, вместе со своей невестой, направляется на встречу со своей дочерью от прежнего брака, чтобы восстановить с ней отношения после смерти ее матери. По дороге они попадают в автомобильную аварию и останавливаются отдохнуть в гостинице, расположенной весьма удаленно от цивилизации. Там они обнаруживают, что хозяин гостиницы держит в подвале маленькую девочку, освободив которую герои навлекают на себя большие неприятности…

Просмотр фильма в 3D и 2D на Full HD 3DTV & стереоскопик плейере!

Качество: BDRip (1080p)
Видео: AVC, 11100 Кбит/с, 1920x1080, 24,000 кадр/сек
Аудио: Русский АС3, 6 ch, 384 Кбит/с
Размер: 6.83 ГБ
Продолжительность: 01:23:30
Перевод: Дублированный

Формат 3D: Half SideBySide / Горизонтальная анаморфная стереопара
Порядок ракурсов: Левый-первый

Полное имя : E:\AV\Gallows.Hill.3D.2013.HSBS.mkv
Формат : Matroska
Версия формата : Version 4 / Version 2
Размер файла : 6,83 Гбайт
Продолжительность : 1 ч. 23 м.
Общий поток : 11,7 Мбит/сек
Дата кодирования : UTC 2016-10-20 17:16:11
Программа кодирования : mkvmerge v7.1.0 ('Good Love') 64bit
Библиотека кодирования : libebml v1.3.0 + libmatroska v1.4.1
DURATION : 01:23:30.495000000

Видео
Идентификатор : 1
Формат : AVC
Формат/Информация : Advanced Video Codec
Профиль формата : High@L4.0
Параметр CABAC формата : Да
Параметр ReFrames формата : 2 кадра
Параметр GOP формата : M=3, N=18
Идентификатор кодека : V_MPEG4/ISO/AVC
Продолжительность : 1 ч. 23 м.
Битрейт : 11,1 Мбит/сек
Ширина : 1920 пикселей
Высота : 1080 пикселей
Соотношение сторон : 16:9
Режим частоты кадров : Постоянный
Частота кадров : 24,000 кадра/сек
Цветовое пространство : YUV
Субдискретизация насыщенности : 4:2:0
Битовая глубина : 8 бит
Тип развёртки : Прогрессивная
Бит/(Пиксели*Кадры) : 0.223
Размер потока : 6,47 Гбайт (95%)
Заголовок : 3D-1080p-HSBS
Язык : English
Default : Да
Forced : Нет

Аудио
Идентификатор : 2
Формат : AC-3
Формат/Информация : Audio Coding 3
Расширение режима : CM (complete main)
Параметр Endianness формата : Big
Идентификатор кодека : A_AC3
Продолжительность : 1 ч. 23 м.
Вид битрейта : Постоянный
Битрейт : 384 Кбит/сек
Каналы : 6 каналов
Расположение каналов : Front: L C R, Side: L R, LFE
Частота : 48,0 КГц
Битовая глубина : 16 бит
Размер потока : 229 Мбайт (3%)
Заголовок : 6 ch, 384 kb/s - dub
Язык : Russian
Default : Да
Forced : Нет

Информация о торренте
Торрент:  Зарегистрирован [20 окт 2016, 23:01] Для скачивания необходимо Зарегистрироваться!



Если Вы уже зарегистрированы, то авторизуйтесь на трекере!
Статус:  
Размер:  6.83 ГБ (7 330 401 216 байт)
Приватный:  Нет (DHT включён)
Хэш:  a3f255ec424bb6428733
872a7ccf13342fd46361
Здоровье:  100%
.torrent скачан:  4
Как тут качать  Правила, основные инструкции, FAQ-и



_________________


 Профиль  
 
 СообщениеДобавлено: 21 окт 2016, 09:26 
Не в сети
Бывалый
Зарегистрирован: 07 июн 2014, 08:13
Торренты: 57
Раздал: 1.81 ТБ 
Скачал: 1023.41 ГБ 
Ратио: 1.813
Спасибо: 251 / 624
Сообщения: 160
Комментарии: 167
В инете нашла только вертикалку с ЧП - даром , что ФЭЙК-Да ещё и не качается!
Спасибо за качественный релиз(скачала сэмпл-на лыже идёт отлично)


 Профиль  
 
 СообщениеДобавлено: 21 окт 2016, 09:30 
Не в сети
Супермодератор
Аватара пользователя
Зарегистрирован: 15 апр 2014, 21:21
Торренты: 491
Раздал: 35.22 ТБ 
Скачал: 1.83 ТБ 
Ратио: 30.313
Спасибо: 2833 / 195
Сообщения: 648
Комментарии: 294
Откуда: РОССИЯ, ЦФО
Elen-best писал(а):
ФЭЙК-Да ещё и не качается!

Абсолютно верно!Почитал отзывы-90% - отрицательных!Но в 2013г - и тот фэйк-шёл на ура!

_________________


 Профиль  
 
Показать сообщения за:  Поле сортировки  
Начать новую тему Ответить на тему  [ Сообщений: 3 ] 


Кто сейчас на трекере

Сейчас этот форум просматривают: нет зарегистрированных пользователей и гости: 2


Вы не можете начинать темы
Вы не можете отвечать на сообщения
Вы не можете редактировать свои сообщения
Вы не можете удалять свои сообщения
Вы не можете добавлять вложения

Найти:
 cron

Правообладателям

!ВНИМАНИЕ!
Ресурс не предоставляет электронные версии произведений, а занимается лишь коллекционированием и каталогизацией ссылок, присылаемых и публикуемых на форуме нашими читателями. Если вы являетесь правообладателем какого-либо представленного материала и не желаете чтобы ссылка на него находилась в нашем каталоге, свяжитесь с нами и мы незамедлительно удалим её. Файлы для обмена на трекере предоставлены пользователями сайта, и администрация не несёт ответственности за их содержание. Просьба не заливать файлы, защищенные авторскими правами, а также файлы нелегального содержания!
cron
Вверх страницы
Вниз страницы
ppkBB3cker v.2 © 2008-2011 @ PPK