3d-tracker.ru • Просмотр темы - Трусонюх 2: Осадки в виде труселей в 3Д / HK Hentai Kamen 2: Abnormal Crisis 3D (2014) [2d->3D, 1080p, Half OverUnder / Вертикальная анаморфная стереопара]

Регистрация Имя: Пароль: Запомнить Забыли пароль?



Правила форума





Начать новую тему Ответить на тему  [ Сообщений: 2 ] 
Статистика раздачи
Размер: 6.52 ГБ | Зарегистрирован: 26 окт 2016, 19:26 | .torrent скачан: 7
Сиды: 0 [0 байт/сек]    Личи: 1 [0 байт/сек]
Автор Сообщение
 СообщениеДобавлено: 26 окт 2016, 19:26 
Не в сети
Бывалый
Зарегистрирован: 07 июн 2014, 08:13
Торренты: 52
Раздал: 1.77 ТБ 
Скачал: 1004.48 ГБ 
Ратио: 1.805
Спасибо: 217 / 506
Сообщения: 149
Комментарии: 158

Название: Трусонюх 2: Осадки в виде труселей
Оригинальное название: HK Hentai Kamen 2: Abnormal Crisis
Год выхода: 2016
Жанр: пародия, комедия, боевик

Режиссер: Фукуда Юичи
В ролях: Мисаки Аямэ, Минагава Сарутоки, Араи Хирофуми, Ябэ Кёскэ, Сузуки Рёхэй, Симидзу Фумика
О фильме: Сикидзо Кёсуки (Судзуки Рёхей), еще в средней школе ставший супергероем с женскими трусиками на голове вместо маски, уже студент колледжа, а похищения женских трусиков до сих пор продолжаются по всему миру.

Страна: Япония
Продолжительность: 01:53:11
Перевод: любительский двухголосый Студия Колобок [2D по субтитрам akira9]

Качество: (1080р)
Видео: AVC, 7890 кбит/с, 23,976 fps
Аудио: Русский AC3, 2 ch, 192 Кбит/с
Размер: 6.52 ГБ

Формат 3D: Half OverUnder / Вертикальная анаморфная стереопара ("без двоения")
Порядок ракурсов: Верхний-первый
Формат : Matroska
Версия формата : Version 4 / Version 2
Размер файла : 6,52 Гбайт
Программа кодирования : mkvmerge v7.1.0 ('Good Love')
Библиотека кодирования : libebml v1.3.0 + libmatroska v1.4.1
DURATION : 01:53:11.118000000

Видео
Идентификатор : 1
Формат : AVC
Формат/Информация : Advanced Video Codec
Профиль формата : High@L4.0
Параметр CABAC формата : Да
Параметр ReFrames формата : 2 кадра
Параметр GOP формата : M=3, N=15
Идентификатор кодека : V_MPEG4/ISO/AVC
Продолжительность : 1 ч. 53 м.
Битрейт : 7890 Кбит/сек
Ширина : 1920 пикселей
Высота : 1080 пикселей
Соотношение сторон : 16:9
Режим частоты кадров : Постоянный
Частота кадров : 23,976 кадра/сек
Цветовое пространство : YUV
Субдискретизация насыщенности : 4:2:0
Битовая глубина : 8 бит
Тип развёртки : Прогрессивная
Бит/(Пиксели*Кадры) : 0.159
Размер потока : 6,24 Гбайт (96%)
Заголовок : 1080p, hou
Язык : English
Default : Да
Forced : Нет

Аудио
Идентификатор : 2
Формат : AC-3
Формат/Информация : Audio Coding 3
Расширение режима : CM (complete main)
Параметр Endianness формата : Big
Идентификатор кодека : A_AC3
Продолжительность : 1 ч. 53 м.
Вид битрейта : Постоянный
Битрейт : 192 Кбит/сек
Каналы : 2 канала
Расположение каналов : Front: L R
Частота : 48,0 КГц
Битовая глубина : 16 бит
Размер потока : 155 Мбайт (2%)
Заголовок : 2 ch, 192 kb/s - 2D(D & D)
Язык : Russian
Default : Да
Forced : Нет

Информация о торренте
Торрент:  Зарегистрирован [26 окт 2016, 19:26] Для скачивания необходимо Зарегистрироваться!



Если Вы уже зарегистрированы, то авторизуйтесь на трекере!
Статус:   изменил Soldat (26 окт 2016, 21:00)
Размер:  6.52 ГБ (6 999 715 853 байт)
Приватный:  Нет (DHT включён)
Хэш:  414db972c20a88036f96
0e417a2540e416af7669
Здоровье:  ???%
.torrent скачан:  7
Как тут качать  Правила, основные инструкции, FAQ-и




 Профиль  
 
 СообщениеДобавлено: 27 окт 2016, 11:38 
Не в сети
Бывалый
Зарегистрирован: 15 май 2014, 15:05
Торренты: 37
Раздал: 2.93 ТБ 
Скачал: 1.24 ТБ 
Ратио: 2.362
Спасибо: 207 / 540
Сообщения: 127
Комментарии: 121
:co_ol: :bra_vo:


 Профиль  
 
Показать сообщения за:  Поле сортировки  
Начать новую тему Ответить на тему  [ Сообщений: 2 ] 


Кто сейчас на трекере

Сейчас этот форум просматривают: нет зарегистрированных пользователей и гости: 1


Вы не можете начинать темы
Вы не можете отвечать на сообщения
Вы не можете редактировать свои сообщения
Вы не можете удалять свои сообщения
Вы не можете добавлять вложения

Найти:


Правообладателям

!ВНИМАНИЕ!
Ресурс не предоставляет электронные версии произведений, а занимается лишь коллекционированием и каталогизацией ссылок, присылаемых и публикуемых на форуме нашими читателями. Если вы являетесь правообладателем какого-либо представленного материала и не желаете чтобы ссылка на него находилась в нашем каталоге, свяжитесь с нами и мы незамедлительно удалим её. Файлы для обмена на трекере предоставлены пользователями сайта, и администрация не несёт ответственности за их содержание. Просьба не заливать файлы, защищенные авторскими правами, а также файлы нелегального содержания!
cron
Вверх страницы
Вниз страницы
ppkBB3cker v.2 © 2008-2011 @ PPK