3d-tracker.ru • Просмотр темы - Полный расколбас в 3Д / Sausage Party 3D (2016) [BDRip, 1080p, Half OverUnder / Вертикальная анаморфная стереопара на весь экран]

Регистрация Имя: Пароль: Запомнить Забыли пароль?



Правила форума





Начать новую тему Ответить на тему  [ 1 сообщение ] 
Статистика раздачи
Размер: 6.12 ГБ | Зарегистрирован: 27 окт 2016, 17:08 | .torrent скачан: 8
Сиды: 5 [0 байт/сек]    Личи: 4 [0 байт/сек]
Автор Сообщение
 СообщениеДобавлено: 27 окт 2016, 17:08 
Не в сети
Супермодератор
Аватара пользователя
Зарегистрирован: 15 апр 2014, 21:21
Торренты: 390
Раздал: 29.6 ТБ 
Скачал: 1.83 ТБ 
Ратио: 27.247
Спасибо: 2148 / 135
Сообщения: 544
Комментарии: 241
Откуда: РОССИЯ, ЦФО

Название: Полный расколбас
Оригинальное название: Sausage Party
Год выпуска: 2016
Жанр: Мультфильм, фэнтези, комедия, приключения
Выпущено: США, Annapurna Pictures, Columbia Pictures, Nitrogen Studios Canada, Point Grey Pictures

Режиссер: Грег Тирнан, Конрад Вернон
В ролях: Алистэр Эбелл, Айрис Апатоу, Стефани Бирд, Майкл Сера, Йен Джеймс Корлетт, Майкл Дэйнджерфилд, Брайан Добсон, Майкл Добсон, Джеймс Франко, Билл Хейдер
О фильме: Первая анимационная комедия для взрослых о невероятных приключениях еды из супермаркета. Съедобным друзьям предстоит получить ответ на главный вопрос: есть ли жизнь за стенами супермаркета и что же происходит с продуктами после того, как они попадают к людям домой?

Размер: 6.12 ГБ
Продолжительность: 01:23:46
Перевод: Дублированный (лицензия)

Качество: (1080p) by SOLdAt
Видео: AVC, ~9900 Кбит/с, 1920x1080, 23,976 fps
Аудио: Русский AC3, 6 ch, 384 Кбит/с

Формат 3D: Half OverUnder / Вертикальная анаморфная стереопара (16:9)
Порядок ракурсов: верхний ракурс - первый
Полное имя : E:\AV\Sausage.Party.2016.1080p.HOU.mkv
Формат : Matroska
Версия формата : Version 4 / Version 2
Размер файла : 6,12 Гбайт
Продолжительность : 1 ч. 23 м.
Общий поток : 10,5 Мбит/сек
Название фильма : from SOLdAt
Дата кодирования : UTC 2016-10-26 02:51:41
Программа кодирования : mkvmerge v7.1.0 ('Good Love') 64bit
Библиотека кодирования : libebml v1.3.0 + libmatroska v1.4.1
DURATION : 01:23:45.980000000

Видео
Идентификатор : 1
Формат : AVC
Формат/Информация : Advanced Video Codec
Профиль формата : High@L4.0
Параметр CABAC формата : Да
Параметр ReFrames формата : 2 кадра
Идентификатор кодека : V_MPEG4/ISO/AVC
Продолжительность : 1 ч. 23 м.
Битрейт : 9870 Кбит/сек
Ширина : 1920 пикселей
Высота : 1080 пикселей
Соотношение сторон : 16:9
Режим частоты кадров : Постоянный
Частота кадров : 23,976 кадра/сек
Цветовое пространство : YUV
Субдискретизация насыщенности : 4:2:0
Битовая глубина : 8 бит
Тип развёртки : Прогрессивная
Бит/(Пиксели*Кадры) : 0.199
Размер потока : 5,77 Гбайт (94%)
Заголовок : 1080p-hou
Язык : English
Default : Да
Forced : Нет

Аудио
Идентификатор : 2
Формат : AC-3
Формат/Информация : Audio Coding 3
Расширение режима : CM (complete main)
Параметр Endianness формата : Big
Идентификатор кодека : A_AC3
Продолжительность : 1 ч. 23 м.
Вид битрейта : Постоянный
Битрейт : 384 Кбит/сек
Каналы : 6 каналов
Расположение каналов : Front: L C R, Side: L R, LFE
Частота : 48,0 КГц
Битовая глубина : 16 бит
Размер потока : 230 Мбайт (4%)
Заголовок : 6 ch, 384 kb/s
Язык : Russian
Default : Да
Forced : Нет


Информация о торренте
Торрент:  Зарегистрирован [27 окт 2016, 17:08] Для скачивания необходимо Зарегистрироваться!



Если Вы уже зарегистрированы, то авторизуйтесь на трекере!
Статус:  
Размер:  6.12 ГБ (6 572 752 431 байт)
Приватный:  Нет (DHT включён)
Хэш:  9a70a68a018392081ac9
b88d78794bf33e67b8b7
Здоровье:  100%
.torrent скачан:  8
Как тут качать  Правила, основные инструкции, FAQ-и



_________________


 Профиль  
 
Показать сообщения за:  Поле сортировки  
Начать новую тему Ответить на тему  [ 1 сообщение ] 


Кто сейчас на трекере

Сейчас этот форум просматривают: нет зарегистрированных пользователей и гости: 1


Вы не можете начинать темы
Вы не можете отвечать на сообщения
Вы не можете редактировать свои сообщения
Вы не можете удалять свои сообщения
Вы не можете добавлять вложения

Найти:


Правообладателям

!ВНИМАНИЕ!
Ресурс не предоставляет электронные версии произведений, а занимается лишь коллекционированием и каталогизацией ссылок, присылаемых и публикуемых на форуме нашими читателями. Если вы являетесь правообладателем какого-либо представленного материала и не желаете чтобы ссылка на него находилась в нашем каталоге, свяжитесь с нами и мы незамедлительно удалим её. Файлы для обмена на трекере предоставлены пользователями сайта, и администрация не несёт ответственности за их содержание. Просьба не заливать файлы, защищенные авторскими правами, а также файлы нелегального содержания!
cron
Вверх страницы
Вниз страницы
ppkBB3cker v.2 © 2008-2011 @ PPK