3d-tracker.ru • Просмотр темы - Отмель в 3Д / The Shallows 3D (2016) [2d->3D, 1080p, HSBS / Горизонтальная анаморфная стереопара]

Регистрация Имя: Пароль: Запомнить Забыли пароль?



Правила форума





Начать новую тему Ответить на тему  [ Сообщений: 3 ] 
Статистика раздачи
Размер: 5.79 ГБ | Зарегистрирован: 30 окт 2016, 17:53 | .torrent скачан: 12
Сиды: 4 [0 байт/сек]    Личи: 11 [0 байт/сек]
Автор Сообщение
 СообщениеДобавлено: 30 окт 2016, 17:53 
Не в сети
Супермодератор
Аватара пользователя
Зарегистрирован: 15 апр 2014, 21:21
Торренты: 464
Раздал: 34.82 ТБ 
Скачал: 1.83 ТБ 
Ратио: 30.092
Спасибо: 2678 / 183
Сообщения: 612
Комментарии: 273
Откуда: РОССИЯ, ЦФО

Название: Отмель
Оригинальное название: The Shallows
Год выпуска: 2016
Жанр: Ужасы, триллер, драма

Режиссер: Жауме Коллет-Серра
В ролях: Блейк Лайвли, Оскар Хаэнада, Бретт Каллен, Седона Ледже, Пабло Кальва, Диего Эспехель, Джанелл Бэйли, Ава Дин, Челси Муди, Салли Сигалл
О фильме: Бескрайний океан, безлюдный пляж и идеальная погода для серфингистов в поисках хорошей волны. Казалось бы, ничто не предвещает беды для очаровательной любительницы серфинга в одиночку. Разве что свидание тет-а-тет с гигантской акулой, которая загонит спортсменку на песчаную отмель и не отступит до тех пор, пока не получит своё.

Страна: США
Студия: Lola Visual Effects, MELS, Notorious VFX
Продолжительность: 01:21:20
Перевод: Дублированный | iTunes
Субтитры: Русские форсированные - (вшитые)

Качество: (1080р)
Видео: AVC, ~9800 Кбит/с, 23,976 fps, 1920x800
Аудио: Русский AC3, 2 ch, 192 Кбит/с
Размер: 5,79 Гб

Формат 3D: Half SideBySide / Горизонтальная анаморфная стереопара
Порядок ракурсов: Левый-первый
Полное имя : E:\AV\Otmel.2016.2d.in.3D.1080p.HSBS.mkv
Формат : Matroska
Версия формата : Version 4 / Version 2
Размер файла : 5,79 Гбайт
Продолжительность : 1 ч. 21 м.
Общий поток : 10,2 Мбит/сек
Дата кодирования : UTC 2016-10-30
Программа кодирования : mkvmerge v7.1.0 ('Good Love') 64bit
Библиотека кодирования : libebml v1.3.0 + libmatroska v1.4.1
DURATION : 01:21:19.797000000

Видео
Идентификатор : 1
Формат : AVC
Формат/Информация : Advanced Video Codec
Профиль формата : High@L4.0
Параметр CABAC формата : Да
Параметр ReFrames формата : 2 кадра
Идентификатор кодека : V_MPEG4/ISO/AVC
Продолжительность : 1 ч. 21 м.
Битрейт : 9789 Кбит/сек
Ширина : 1920 пикселей
Высота : 1080 пикселей
Соотношение сторон : 16:9
Режим частоты кадров : Постоянный
Частота кадров : 23,976 кадра/сек
Цветовое пространство : YUV
Субдискретизация насыщенности : 4:2:0
Битовая глубина : 8 бит
Тип развёртки : Прогрессивная
Бит/(Пиксели*Кадры) : 0.197
Размер потока : 5,56 Гбайт (96%)
Язык : English
Default : Да
Forced : Нет

Аудио
Идентификатор : 2
Формат : AC-3
Формат/Информация : Audio Coding 3
Расширение режима : CM (complete main)
Параметр Endianness формата : Big
Идентификатор кодека : A_AC3
Продолжительность : 1 ч. 21 м.
Вид битрейта : Постоянный
Битрейт : 192 Кбит/сек
Каналы : 2 канала
Расположение каналов : Front: L R
Частота : 48,0 КГц
Битовая глубина : 16 бит
Размер потока : 112 Мбайт (2%)
Заголовок : 2 ch, 192 kb/s
Язык : Russian
Default : Да
Forced : Нет

Информация о торренте
Торрент:  Зарегистрирован [30 окт 2016, 17:53] Для скачивания необходимо Зарегистрироваться!



Если Вы уже зарегистрированы, то авторизуйтесь на трекере!
Статус:  
Размер:  5.79 ГБ (6 211 671 796 байт)
Приватный:  Нет (DHT включён)
Хэш:  175e7474a3abe446e1d5
13574896f6ad6de0810b
Здоровье:  36%
.torrent скачан:  12
Как тут качать  Правила, основные инструкции, FAQ-и



_________________


 Профиль  
 
 СообщениеДобавлено: 30 окт 2016, 21:39 
Не в сети
Опытный
Аватара пользователя
Зарегистрирован: 20 май 2013, 12:10
Торренты: 32
Раздал: 631.77 ГБ 
Скачал: 371.62 ГБ 
Ратио: 1.700
Спасибо: 127 / 1
Сообщения: 65
Комментарии: 52
:sh_ok:


 Профиль  
 
 СообщениеДобавлено: 02 ноя 2016, 10:08 
Не в сети
Модератор
Аватара пользователя
Зарегистрирован: 30 авг 2016, 14:54
Торренты: 116
Раздал: 501.37 ГБ 
Скачал: 32.89 ГБ 
Ратио: 15.243
Спасибо: 638 / 327
Сообщения: 122
Комментарии: 19
kanasyvrik писал(а):
:sh_ok:

Как тебе твоё творение в горизонте?

_________________


 Профиль  
 
Показать сообщения за:  Поле сортировки  
Начать новую тему Ответить на тему  [ Сообщений: 3 ] 


Кто сейчас на трекере

Сейчас этот форум просматривают: нет зарегистрированных пользователей и гости: 2


Вы не можете начинать темы
Вы не можете отвечать на сообщения
Вы не можете редактировать свои сообщения
Вы не можете удалять свои сообщения
Вы не можете добавлять вложения

Найти:


Правообладателям

!ВНИМАНИЕ!
Ресурс не предоставляет электронные версии произведений, а занимается лишь коллекционированием и каталогизацией ссылок, присылаемых и публикуемых на форуме нашими читателями. Если вы являетесь правообладателем какого-либо представленного материала и не желаете чтобы ссылка на него находилась в нашем каталоге, свяжитесь с нами и мы незамедлительно удалим её. Файлы для обмена на трекере предоставлены пользователями сайта, и администрация не несёт ответственности за их содержание. Просьба не заливать файлы, защищенные авторскими правами, а также файлы нелегального содержания!
cron
Вверх страницы
Вниз страницы
ppkBB3cker v.2 © 2008-2011 @ PPK