3d-tracker.ru • Просмотр темы - Элизиум: Рай не на Земле в 3Д / Elysium 3D (2013) [BDRip, Half OverUnder / Вертикальная анаморфная стереопара]

Регистрация Имя: Пароль: Запомнить Забыли пароль?



Правила форума





Начать новую тему Ответить на тему  [ 1 сообщение ] 
Статистика раздачи
Размер: 8.59 ГБ | Зарегистрирован: 09 ноя 2016, 10:15 | .torrent скачан: 9
Сиды: 1 [0 байт/сек]    Личи: 1 [0 байт/сек]
Автор Сообщение
 СообщениеДобавлено: 09 ноя 2016, 10:15 
Не в сети
Бывалый
Зарегистрирован: 07 июн 2014, 08:13
Торренты: 51
Раздал: 1.52 ТБ 
Скачал: 946.23 ГБ 
Ратио: 1.644
Спасибо: 203 / 430
Сообщения: 150
Комментарии: 157

Название: Элизиум: Рай не на Земле
Оригинальное название: Elysium
Год выпуска: 2013
Жанр: Фантастика, боевик, триллер, драма
Выпущено: США, Media Rights Capital, QED International, Simon Kinberg Productions, Sony Pictures Entertainment (SPE), TriStar Pictures

Режиссер: Нил Бломкамп
В ролях: Мэтт Дэймон, Джоди Фостер, Шарлто Копли, Алиси Брага, Диего Луна, Вагнер Моура, Уильям Фихтнер, Карли Поуп, Майкл Шэнкс, Талиса Сото
О фильме: В 2154 году существует два класса людей: очень богатые, живущие на чистой, созданной руками человека, космической станции под названием Элизиум и остальные, живущие на перенаселённой разрушенной Земле. Безжалостный правительственный чиновник Министр Роудс не остановится ни перед чем для применения анти-иммиграционных законов и сохранения роскошного образа жизни граждан Элизиума. Когда неудачника Макса загоняют в угол, он соглашается взять на себя сложную миссию, которая в случае успеха не только спасёт ему жизнь, но и может привести к равенству этих поляризованных миров.

Качество: BDRip (1080p) by SOLdAt
Видео: MPEG-4 AVC, 11200 Кбит/с, 1920x800, 23,976 кадра/сек
Аудио: Русский (AC3, 6 ch, 448 Кбит/с)
Размер: 8.59 ГБ
Продолжительность: 01:43:17
Перевод: Дублированный

Формат 3D: Half OverUnder / Вертикальная анаморфная стереопара
Порядок ракурсов: Верхний ракурс первый.
Полное имя : E:\AV\Elysium.2013.1080p.blurayrip.x264.H-OU.mkv
Формат : Matroska
Версия формата : Version 4 / Version 2
Размер файла : 8,59 Гбайт
Продолжительность : 1 ч. 43 м.
Режим общего битрейта : Переменный
Общий поток : 11,9 Мбит/сек
Название фильма : From SOLdAt
Дата кодирования : UTC 2016-11-09
Программа кодирования : mkvmerge v7.1.0 ('Good Love') 64bit
Библиотека кодирования : libebml v1.3.0 + libmatroska v1.4.1
DURATION : 01:43:16.960000000

Видео
Идентификатор : 1
Формат : AVC
Версия формата : Version 2
Профиль формата : High@4.0
Параметр BVOP формата : Да
Параметр GOP формата : M=3, N=18
Продолжительность : 1 ч. 43 м.
Битрейт : 11,2 Мбит/сек
Ширина : 1920 пикселей
Высота : 1080 пикселей
Соотношение сторон : 16:9
Режим частоты кадров : Постоянный
Частота кадров : 23,976 кадра/сек
Цветовое пространство : YUV
Субдискретизация насыщенности : 4:2:0
Битовая глубина : 8 бит
Тип развёртки : Прогрессивная
Бит/(Пиксели*Кадры) : 0.226
Размер потока : 8,10 Гбайт (94%)
Заголовок : 1080p
Язык : English
Default : Да
Forced : Нет

Аудио
Идентификатор : 2
Формат : AC-3
Формат/Информация : Audio Coding 3
Расширение режима : CM (complete main)
Параметр Endianness формата : Big
Идентификатор кодека : A_AC3
Продолжительность : 1 ч. 43 м.
Вид битрейта : Постоянный
Битрейт : 448 Кбит/сек
Каналы : 6 каналов
Расположение каналов : Front: L C R, Side: L R, LFE
Частота : 48,0 КГц
Битовая глубина : 16 бит
Размер потока : 331 Мбайт (4%)
Заголовок : 6 ch, 448 kb/s
Язык : Russian
Default : Да
Forced : Нет

Информация о торренте
Торрент:  Зарегистрирован [09 ноя 2016, 10:15] Для скачивания необходимо Зарегистрироваться!



Если Вы уже зарегистрированы, то авторизуйтесь на трекере!
Статус:   изменил Soldat (09 ноя 2016, 11:52)
Размер:  8.59 ГБ (9 225 798 293 байт)
Приватный:  Нет (DHT включён)
Хэш:  4599fbabd63aa518f384
bce2728a5c9bcb258ddc
Здоровье:  100%
.torrent скачан:  9
Как тут качать  Правила, основные инструкции, FAQ-и




 Профиль  
 
Показать сообщения за:  Поле сортировки  
Начать новую тему Ответить на тему  [ 1 сообщение ] 


Кто сейчас на трекере

Сейчас этот форум просматривают: Intruders и гости: 12


Вы не можете начинать темы
Вы не можете отвечать на сообщения
Вы не можете редактировать свои сообщения
Вы не можете удалять свои сообщения
Вы не можете добавлять вложения

Найти:


Правообладателям

!ВНИМАНИЕ!
Ресурс не предоставляет электронные версии произведений, а занимается лишь коллекционированием и каталогизацией ссылок, присылаемых и публикуемых на форуме нашими читателями. Если вы являетесь правообладателем какого-либо представленного материала и не желаете чтобы ссылка на него находилась в нашем каталоге, свяжитесь с нами и мы незамедлительно удалим её. Файлы для обмена на трекере предоставлены пользователями сайта, и администрация не несёт ответственности за их содержание. Просьба не заливать файлы, защищенные авторскими правами, а также файлы нелегального содержания!
cron
Вверх страницы
Вниз страницы
ppkBB3cker v.2 © 2008-2011 @ PPK