3d-tracker.ru • Просмотр темы - Преступник в 3Д / Criminal 3D (2016) [BDRip, 1080р, Half Side-by-Side / Горизонтальная анаморфная стереопара на весь экран]

Регистрация Имя: Пароль: Запомнить Забыли пароль?



Правила форума





Начать новую тему Ответить на тему  [ 1 сообщение ] 
Статистика раздачи
Размер: 9.78 ГБ | Зарегистрирован: 09 ноя 2016, 10:49 | .torrent скачан: 18
Сиды: 4 [0 байт/сек]    Личи: 3 [0 байт/сек]
Автор Сообщение
 СообщениеДобавлено: 09 ноя 2016, 10:49 
Не в сети
Бывалый
Зарегистрирован: 07 июн 2014, 08:13
Торренты: 51
Раздал: 1.52 ТБ 
Скачал: 946.23 ГБ 
Ратио: 1.644
Спасибо: 203 / 430
Сообщения: 150
Комментарии: 157

Название: Преступник
Оригинальное название: Criminal
Год выпуска: 2016
Жанр: Фантастика, боевик, триллер, драма, криминал, детектив
Выпущено: Великобритания, США, BenderSpink, Campbell Grobman Films, Lionsgate

Режиссер: Ариэль Вромен
В ролях: Кевин Костнер, Гэри Олдман, Томми Ли Джонс, Райан Рейнольдс, Элис Ив, Галь Гадот, Хорди Молья, Майкл Питт, Амори Ноласко, Антье Трауэ, Скотт Эдкинс, Лара Дэкаро, Фредди Бош, Эммануэль Имани, Гарри Хэппл, Даг Кокл, Колин Сэлмон, Стив Николсон
О фильме: В последней отчаянной попытке остановить катастрофу мирового масштаба генетики осуществляют невероятную операцию по вживлению воспоминаний и умений погибшего оперативника ЦРУ в тело опасного заключенного с надеждой, что тот доведет до конца прерванную миссию агента.

Размер: 9.78 ГБ
Продолжительность: 01:45:39
Перевод: Дублированный

Качество: BDRip (1080р)
Видео: AVC, 12,6 Мбит/с, 29,970 кадра/сек, 1920х1080
Аудио: Русский АС3, 6 ch, 384 Кбит/с

Формат 3D: Half SideBySide / Горизонтальная анаморфная стереопара
Порядок ракурсов: Левый-первый
Полное имя : C:\user\Prestupnik.2016.1080p.HSBS.mkv
Формат : Matroska
Версия формата : Version 4 / Version 2
Размер файла : 9,78 Гбайт
Продолжительность : 1 ч. 45 м.
Режим общего битрейта : Переменный
Общий поток : 13,3 Мбит/сек
Дата кодирования : UTC 2016-11-08 18:14:15
Программа кодирования : mkvmerge v8.3.0 ('Over the Horizon') 64bit
Библиотека кодирования : libebml v1.3.1 + libmatroska v1.4.2
DURATION : 01:45:38.976000000

Видео
Идентификатор : 1
Формат : AVC
Версия формата : Version 2
Профиль формата : High@4.0
Параметр BVOP формата : Да
Параметр матрицы формата : Выборочная
Параметр GOP формата : M=3, N=15
Продолжительность : 1 ч. 45 м.
Битрейт : 12,6 Мбит/сек
Ширина : 1920 пикселей
Высота : 1080 пикселей
Соотношение сторон : 16:9
Режим частоты кадров : Постоянный
Частота кадров : 29,970 кадров/сек
Цветовое пространство : YUV
Субдискретизация насыщенности : 4:2:0
Битовая глубина : 8 бит
Тип развёртки : Прогрессивная
Бит/(Пиксели*Кадры) : 0.203
Временной код первого кадра : 00:00:00:00
Размер потока : 9,30 Гбайт (95%)
Язык : English
Default : Да
Forced : Нет

Аудио
Идентификатор : 2
Формат : AC-3
Формат/Информация : Audio Coding 3
Расширение режима : CM (complete main)
Параметр Endianness формата : Big
Идентификатор кодека : A_AC3
Продолжительность : 1 ч. 45 м.
Вид битрейта : Постоянный
Битрейт : 384 Кбит/сек
Каналы : 6 каналов
Расположение каналов : Front: L C R, Side: L R, LFE
Частота : 48,0 КГц
Битовая глубина : 16 бит
Размер потока : 290 Мбайт (3%)
Язык : Russian
Default : Да
Forced : Нет

Информация о торренте
Торрент:  Зарегистрирован [09 ноя 2016, 10:49] Для скачивания необходимо Зарегистрироваться!



Если Вы уже зарегистрированы, то авторизуйтесь на трекере!
Статус:   изменил Soldat (09 ноя 2016, 11:51)
Размер:  9.78 ГБ (10 499 224 769 байт)
Приватный:  Нет (DHT включён)
Хэш:  efa72be800fef386b0fe
ab115c80fea118966bb5
Здоровье:  100%
.torrent скачан:  18
Как тут качать  Правила, основные инструкции, FAQ-и




 Профиль  
 
Показать сообщения за:  Поле сортировки  
Начать новую тему Ответить на тему  [ 1 сообщение ] 


Кто сейчас на трекере

Сейчас этот форум просматривают: Intruders и гости: 11


Вы не можете начинать темы
Вы не можете отвечать на сообщения
Вы не можете редактировать свои сообщения
Вы не можете удалять свои сообщения
Вы не можете добавлять вложения

Найти:


Правообладателям

!ВНИМАНИЕ!
Ресурс не предоставляет электронные версии произведений, а занимается лишь коллекционированием и каталогизацией ссылок, присылаемых и публикуемых на форуме нашими читателями. Если вы являетесь правообладателем какого-либо представленного материала и не желаете чтобы ссылка на него находилась в нашем каталоге, свяжитесь с нами и мы незамедлительно удалим её. Файлы для обмена на трекере предоставлены пользователями сайта, и администрация не несёт ответственности за их содержание. Просьба не заливать файлы, защищенные авторскими правами, а также файлы нелегального содержания!
cron
Вверх страницы
Вниз страницы
ppkBB3cker v.2 © 2008-2011 @ PPK