3d-tracker.ru • Просмотр темы - Восставшие мертвецы: Конец игры В 3Д / Dead Rising: Endgame 3D (2016) [BDRip, 1080р, Half OverUnder / Вертикальная анаморфная стереопара на весь экран]

Регистрация Имя: Пароль: Запомнить Забыли пароль?



Правила форума





Начать новую тему Ответить на тему  [ 1 сообщение ] 
Статистика раздачи
Размер: 6.41 ГБ | Зарегистрирован: 10 ноя 2016, 20:41 | .torrent скачан: 9
Сиды: 11 [0 байт/сек]    Личи: 1 [0 байт/сек]
Автор Сообщение
 СообщениеДобавлено: 10 ноя 2016, 20:41 
Не в сети
Супермодератор
Аватара пользователя
Зарегистрирован: 15 апр 2014, 21:21
Торренты: 464
Раздал: 34.82 ТБ 
Скачал: 1.83 ТБ 
Ратио: 30.092
Спасибо: 2678 / 183
Сообщения: 612
Комментарии: 273
Откуда: РОССИЯ, ЦФО

Название: Восставшие мертвецы: конец игры
Оригинальное название: Dead Rising: Endgame
Год выпуска: 2016
Жанр: Ужасы, боевик

Режиссер: Пэт Уильямс
В ролях: Джесси Меткалф, Киган Коннор Трэйси, Джессика Хэрмон, Дэннис Хэйсбёрт, Мари Авгеропулос, Тич Грант, Дакота Гуппи, Наоми Кайл, Стивен Лобо, Кертис Льюм
О фильме: Продолжение экранизации игрового хита от Dead Rising об оживших мертвецах и способах их аннигиляции подручными средствами. Джесси Меткалф возвращается в роли Чейза, бесстрашного выжившего, чьи навыки ведения боя с зомби стали еще более эффективными. Он снова выясняет интересные подробности о зомби-вирусе и правительстве.

Страна: США
Студия: Contradiction Films, DR2 Productions, Legendary Digital Media, Sony Pictures Entertainment (SPE)
Продолжительность: 01:32:59
Перевод: Любительский (многоголосый, закадровый) | Paradox & Omskbird records

Качество: BDRip (1080p) by SOLdAt
Видео: MPEG-4 AVC, ~9300 Кбит/с, 1920x1080, 23,976 кадра/сек
Аудио: Русский AC3, 6 ch, 384 Кбит/с
Размер: 6.41 ГБ

Формат 3D: Half OverUnder / Вертикальная анаморфная стереопара (16:9) ["без двоения"]
Порядок ракурсов: Верхний ракурс первый.
Полное имя : E:\AV\Vosstavchie.mertveci.konec.game.2016.1080p.H-OU.mkv
Формат : Matroska
Версия формата : Version 4 / Version 2
Размер файла : 6,41 Гбайт
Продолжительность : 1 ч. 32 м.
Общий поток : 9872 Кбит/сек
Название фильма : from SOLdAt
Дата кодирования : UTC 2016-11-10
Программа кодирования : mkvmerge v7.1.0 ('Good Love') 64bit
Библиотека кодирования : libebml v1.3.0 + libmatroska v1.4.1
DURATION : 01:32:59.072000000

Видео
Идентификатор : 1
Формат : AVC
Формат/Информация : Advanced Video Codec
Профиль формата : High@L4.0
Параметр CABAC формата : Да
Параметр ReFrames формата : 2 кадра
Параметр GOP формата : M=3, N=15
Идентификатор кодека : V_MPEG4/ISO/AVC
Продолжительность : 1 ч. 32 м.
Битрейт : 9292 Кбит/сек
Ширина : 1920 пикселей
Высота : 1080 пикселей
Соотношение сторон : 16:9
Режим частоты кадров : Постоянный
Частота кадров : 23,976 кадра/сек
Цветовое пространство : YUV
Субдискретизация насыщенности : 4:2:0
Битовая глубина : 8 бит
Тип развёртки : Прогрессивная
Бит/(Пиксели*Кадры) : 0.187
Размер потока : 6,03 Гбайт (94%)
Заголовок : 1080p, HOU
Язык : English
Default : Да
Forced : Нет

Аудио
Идентификатор : 2
Формат : AC-3
Формат/Информация : Audio Coding 3
Расширение режима : CM (complete main)
Параметр Endianness формата : Big
Идентификатор кодека : A_AC3
Продолжительность : 1 ч. 32 м.
Вид битрейта : Постоянный
Битрейт : 384 Кбит/сек
Каналы : 6 каналов
Расположение каналов : Front: L C R, Side: L R, LFE
Частота : 48,0 КГц
Битовая глубина : 16 бит
Размер потока : 255 Мбайт (4%)
Заголовок : 6 ch, 384 kb/s
Язык : Russian
Default : Да
Forced : Нет

Информация о торренте
Торрент:  Зарегистрирован [10 ноя 2016, 20:41] Для скачивания необходимо Зарегистрироваться!



Если Вы уже зарегистрированы, то авторизуйтесь на трекере!
Статус:  
Размер:  6.41 ГБ (6 884 785 220 байт)
Приватный:  Нет (DHT включён)
Хэш:  16e364f00bd5868021a8
34114a3c9036c076befc
Здоровье:  100%
.torrent скачан:  9
Как тут качать  Правила, основные инструкции, FAQ-и



_________________


 Профиль  
 
Показать сообщения за:  Поле сортировки  
Начать новую тему Ответить на тему  [ 1 сообщение ] 


Кто сейчас на трекере

Сейчас этот форум просматривают: нет зарегистрированных пользователей и гости: 1


Вы не можете начинать темы
Вы не можете отвечать на сообщения
Вы не можете редактировать свои сообщения
Вы не можете удалять свои сообщения
Вы не можете добавлять вложения

Найти:


Правообладателям

!ВНИМАНИЕ!
Ресурс не предоставляет электронные версии произведений, а занимается лишь коллекционированием и каталогизацией ссылок, присылаемых и публикуемых на форуме нашими читателями. Если вы являетесь правообладателем какого-либо представленного материала и не желаете чтобы ссылка на него находилась в нашем каталоге, свяжитесь с нами и мы незамедлительно удалим её. Файлы для обмена на трекере предоставлены пользователями сайта, и администрация не несёт ответственности за их содержание. Просьба не заливать файлы, защищенные авторскими правами, а также файлы нелегального содержания!
cron
Вверх страницы
Вниз страницы
ppkBB3cker v.2 © 2008-2011 @ PPK