3d-tracker.ru • Просмотр темы - Мрачные тени в 3Д / Dark Shadows 3D (2012) [BDRip, 720p, HSBS]

Регистрация Имя: Пароль: Запомнить Забыли пароль?



Правила форума





Начать новую тему Ответить на тему  [ Сообщений: 4 ] 
Статистика раздачи
Размер: 4.54 ГБ | Зарегистрирован: 16 ноя 2016, 17:42 | .torrent скачан: 5
Сиды: 1 [0 байт/сек]    Личи: 4 [0 байт/сек]
Автор Сообщение
 СообщениеДобавлено: 16 ноя 2016, 17:42 
Не в сети
Супермодератор
Аватара пользователя
Зарегистрирован: 15 апр 2014, 21:21
Торренты: 438
Раздал: 33.29 ТБ 
Скачал: 1.83 ТБ 
Ратио: 29.262
Спасибо: 2466 / 165
Сообщения: 580
Комментарии: 259
Откуда: РОССИЯ, ЦФО

Название: Мрачные тени
Оригинальное название: Dark Shadows
Год выпуска: 2012
Жанр: Фэнтези, комедия
Выпущено: США, Австралия, Warner Bros. Pictures, Tim Burton Productions

Режиссер: Тим Бёртон
В ролях: Джонни Депп, Мишель Пфайффер, Хелена Бонем Картер, Ева Грин, Джеки Эрл Хейли, Джонни Ли Миллер, Белла Хиткот, Хлоя Грейс Морец, Гулливер МакГрат, Кристофер Ли, Уильям Хоуп, Рей Ширли, Элис Купер, Айван Кэй, Сузанна Каппельяро, Жозефин Батлер, Шэйн Риммер, Майкл Шеннон, Гарри Тейлор, Глен Макстед, Гай Флэнеган, Найджел Уитми, Филип Балкок, Софи Кеннеди Кларк, Ханна Мюррэй, Виктория Бьюик, Шон Махон, Алексия Осборн, Ричард Холлис, Фелисити Брэнган, Майкл Энтони Браун
О фильме: Владелец поместья Коллинвуд, Барнабас Коллинз, богат, властен и слывет неисправимым Казановой, пока не совершает роковую ошибку, разбив сердце Анжелики Бошар. Будучи ведьмой в буквальном смысле этого слова, она обрекает его на судьбу, худшую, чем сама смерть — обращает его в вампира и хоронит заживо. Два века спустя Барнабаса случайно освобождают из склепа, и тот оказывается в очень изменившемся мире 1972 года. Он возвращается в Коллинвуд и находит в руинах это некогда величественное здание. Жалкие потомки его семьи сохранились лишь немногим лучше родового гнезда, и у каждого из них есть свои «скелеты в шкафу».

Качество: BDRip (720р)
Видео: AVC, 5777 kb/s, 1280x720, 23,976 fps
Аудио: Русский AC3, 2 ch, 256 Кбит/с
Размер: 4.54 ГБ
Продолжительность: 01:47:06
Перевод: Дублированный

Формат 3D: Half SideBySide / Горизонтальная анаморфная стереопара ("без двоения+")
Порядок ракурсов: Левый-первый
Полное имя : E:\AV\Mrachnie.Teni.2012.720p.HSBS.mkv
Формат : Matroska
Версия формата : Version 4 / Version 2
Размер файла : 4,54 Гбайт
Продолжительность : 1 ч. 47 м.
Общий поток : 6066 Кбит/сек
Дата кодирования : UTC 2016-11-16 10:42:23
Программа кодирования : mkvmerge v8.3.0 ('Over the Horizon') 64bit
Библиотека кодирования : libebml v1.3.1 + libmatroska v1.4.2
DURATION : 01:47:06.045000000

Видео
Идентификатор : 1
Формат : AVC
Формат/Информация : Advanced Video Codec
Профиль формата : High@L3.1
Параметр CABAC формата : Да
Параметр ReFrames формата : 4 кадра
Идентификатор кодека : V_MPEG4/ISO/AVC
Продолжительность : 1 ч. 47 м.
Битрейт : 5777 Кбит/сек
Ширина : 1280 пикселей
Высота : 720 пикселей
Соотношение сторон : 16:9
Режим частоты кадров : Постоянный
Частота кадров : 23,976 кадра/сек
Цветовое пространство : YUV
Субдискретизация насыщенности : 4:2:0
Битовая глубина : 8 бит
Тип развёртки : Прогрессивная
Бит/(Пиксели*Кадры) : 0.261
Размер потока : 4,26 Гбайт (94%)
Библиотека кодирования : x264 core 119
Язык : English
Default : Да
Forced : Нет

Аудио
Идентификатор : 2
Формат : AC-3
Формат/Информация : Audio Coding 3
Расширение режима : CM (complete main)
Параметр Endianness формата : Big
Идентификатор кодека : A_AC3
Продолжительность : 1 ч. 47 м.
Вид битрейта : Постоянный
Битрейт : 256 Кбит/сек
Каналы : 2 канала
Расположение каналов : Front: L R
Частота : 48,0 КГц
Битовая глубина : 16 бит
Размер потока : 196 Мбайт (4%)
Язык : Russian
Default : Да
Forced : Нет

Информация о торренте
Торрент:  Зарегистрирован [16 ноя 2016, 17:42] Для скачивания необходимо Зарегистрироваться!



Если Вы уже зарегистрированы, то авторизуйтесь на трекере!
Статус:  
Размер:  4.54 ГБ (4 872 421 673 байт)
Приватный:  Нет (DHT включён)
Хэш:  8111e05881996897b604
95bde19b2aba177956bf
Здоровье:  25%
.torrent скачан:  5
Как тут качать  Правила, основные инструкции, FAQ-и



_________________


 Профиль  
 
 СообщениеДобавлено: 17 ноя 2016, 09:50 
Не в сети
Модератор
Аватара пользователя
Зарегистрирован: 30 авг 2016, 14:54
Торренты: 100
Раздал: 281.29 ГБ 
Скачал: 16.3 ГБ 
Ратио: 17.254
Спасибо: 507 / 296
Сообщения: 103
Комментарии: 11
Прикольный фильм!Конверт-просто шикарный! :co_ol:

_________________


 Профиль  
 
 СообщениеДобавлено: 17 ноя 2016, 09:57 
Не в сети
Бывалый
Зарегистрирован: 07 июн 2014, 08:13
Торренты: 52
Раздал: 1.79 ТБ 
Скачал: 1012.97 ГБ 
Ратио: 1.811
Спасибо: 221 / 553
Сообщения: 147
Комментарии: 159
:ya-za: :cool_cool: :ro_za:


 Профиль  
 
 СообщениеДобавлено: 17 ноя 2016, 14:31 
Не в сети
Супермодератор
Аватара пользователя
Зарегистрирован: 15 апр 2014, 21:21
Торренты: 438
Раздал: 33.29 ТБ 
Скачал: 1.83 ТБ 
Ратио: 29.262
Спасибо: 2466 / 165
Сообщения: 580
Комментарии: 259
Откуда: РОССИЯ, ЦФО
:smu:sche_nie:

_________________


 Профиль  
 
Показать сообщения за:  Поле сортировки  
Начать новую тему Ответить на тему  [ Сообщений: 4 ] 


Кто сейчас на трекере

Сейчас этот форум просматривают: нет зарегистрированных пользователей и гости: 3


Вы не можете начинать темы
Вы не можете отвечать на сообщения
Вы не можете редактировать свои сообщения
Вы не можете удалять свои сообщения
Вы не можете добавлять вложения

Найти:


Правообладателям

!ВНИМАНИЕ!
Ресурс не предоставляет электронные версии произведений, а занимается лишь коллекционированием и каталогизацией ссылок, присылаемых и публикуемых на форуме нашими читателями. Если вы являетесь правообладателем какого-либо представленного материала и не желаете чтобы ссылка на него находилась в нашем каталоге, свяжитесь с нами и мы незамедлительно удалим её. Файлы для обмена на трекере предоставлены пользователями сайта, и администрация не несёт ответственности за их содержание. Просьба не заливать файлы, защищенные авторскими правами, а также файлы нелегального содержания!
cron
Вверх страницы
Вниз страницы
ppkBB3cker v.2 © 2008-2011 @ PPK