3d-tracker.ru • Просмотр темы - Константин: Повелитель тьмы / Constantine 3D (2005) [BDRip, 1080p, Half OverUnder / Вертикальная анаморфная пара]

Регистрация Имя: Пароль: Запомнить Забыли пароль?



Правила форума





Начать новую тему Ответить на тему  [ 1 сообщение ] 
Статистика раздачи
Размер: 7.97 ГБ | Зарегистрирован: 22 ноя 2016, 15:14 | .torrent скачан: 12
Сиды: 7 [0 байт/сек]    Личи: 1 [0 байт/сек]
Автор Сообщение
 СообщениеДобавлено: 22 ноя 2016, 15:14 
Не в сети
Супермодератор
Аватара пользователя
Зарегистрирован: 15 апр 2014, 21:21
Торренты: 451
Раздал: 34.34 ТБ 
Скачал: 1.83 ТБ 
Ратио: 29.834
Спасибо: 2556 / 175
Сообщения: 594
Комментарии: 267
Откуда: РОССИЯ, ЦФО

Название: Константин: Повелитель тьмы
Оригинальное название: Constantine
Год выпуска: 2005
Жанр: Фэнтези, триллер, драма, комикс
Выпущено: США, Warner Bros. Pictures, Village Roadshow Pictures, Vertigo DC Comics

Режиссер: Фрэнсис Лоуренс
В ролях: Киану Ривз, Рэйчел Вайз, Шайа ЛаБаф, Джимон Хонсу, Макс Бэйкер, Прюитт Тейлор Винс, Гэвин Россдэйл, Тильда Суинтон, Джесси Рамирес, Мишель Монаган, Ларри Сидар, Питер Штормаре, Хосе Зунига
О фильме: Джону Константину удалось не только побывать в аду, но и вернуться обратно. Родившись с неугодным самому себе талантом — способностью распознавать помесь ангелов и демонов, которые бродят по земле в облике людей, — Константин под давлением обстоятельств пытается совершить самоубийство, лишь бы избавиться от мучительных видений. Но неудачно. Воскрешенный против собственной воли он снова оказывается в мире живых. Теперь, отмеченный печатью суицида и получивший временное право на жизнь, он патрулирует границу, разделяющую рай и ад, тщетно надеясь на обретение спасения путем сражения с земными ставленниками зла. Но и Константин не святой. Приходя всё в большее разочарование от окружающего мира, и будучи не в ладу с миром потусторонним, ожесточившись от тяжелой жизни, он начинает спиваться, с презрением относясь к самой идее героизма. Константин будет бороться за вашу душу, но ему не нужно ни ваше восхищение, ни ваша благодарность. И уж меньше всего ваше сочувствие! Все, что ему нужно, — это найти выход… Когда отчаявшаяся, но не растерявшая свой скептицизм сотрудница полиции заручается поддержкой Константина для раскрытия загадочного самоубийства ее сестры-близнеца, расследование заводит их в мир демонов и ангелов, что находится в подземелье современного мегаполиса Лос-Анджелеса. Попав в череду катастрофических событий иного мира, Константин и Анджела настолько увязают в них, что обретение мира и спокойствия любой ценой становится для них самой целью…

Качество: BDRip (1080p) by SOLdAt
Видео: AVC, 13,0 Мбит/сек, 1920x1080, 23.976 кадр/с
Аудио: Русский AC3, 2 ch, 256 Кбит/с
Размер: 7,97 Гб
Продолжительность: 01:26:32
Перевод: Дублированный

Формат 3D: Half OverUnder / Вертикальная анаморфная стереопара на весь экран ("No Ghost")
Порядок ракурсов: верхний ракурс первый.
Полное имя : E:\AV\Constantine.2005.BDRip.1080p.H-OU.No.ghost.x264.[from.SOLdAt].mkv
Формат : Matroska
Версия формата : Version 4 / Version 2
Размер файла : 7,97 Гбайт
Продолжительность : 1 ч. 26 м.
Общий поток : 13,2 Мбит/сек
Название фильма : from SOLdAt-No.ghost[1080p, HOU]
Дата кодирования : UTC 2016-11-22
Программа кодирования : mkvmerge v7.1.0 ('Good Love') 64bit
DURATION : 01:26:31.520000000

Видео
Идентификатор : 1
Формат : AVC
Формат/Информация : Advanced Video Codec
Профиль формата : High@L4.1
Параметр CABAC формата : Да
Параметр ReFrames формата : 4 кадра
Идентификатор кодека : V_MPEG4/ISO/AVC
Продолжительность : 1 ч. 26 м.
Битрейт : 13,0 Мбит/сек
Ширина : 1920 пикселей
Высота : 1080 пикселей
Соотношение сторон : 16:9
Режим частоты кадров : Постоянный
Частота кадров : 23,976 кадра/сек
Цветовое пространство : YUV
Субдискретизация насыщенности : 4:2:0
Битовая глубина : 8 бит
Тип развёртки : Прогрессивная
Бит/(Пиксели*Кадры) : 0.261
Размер потока : 7,66 Гбайт (96%)
Заголовок : 1080p, hou
Язык : English
Default : Да
Forced : Нет

Аудио
Идентификатор : 2
Формат : AC-3
Формат/Информация : Audio Coding 3
Расширение режима : CM (complete main)
Параметр Endianness формата : Big
Идентификатор кодека : A_AC3
Продолжительность : 1 ч. 26 м.
Вид битрейта : Постоянный
Битрейт : 256 Кбит/сек
Каналы : 2 канала
Расположение каналов : Front: L R
Частота : 48,0 КГц
Битовая глубина : 16 бит
Размер потока : 158 Мбайт (2%)
Заголовок : 2 ch, 256 kb/s
Язык : Russian
Default : Да
Forced : Нет

Информация о торренте
Торрент:  Зарегистрирован [22 ноя 2016, 15:14] Для скачивания необходимо Зарегистрироваться!



Если Вы уже зарегистрированы, то авторизуйтесь на трекере!
Статус:  
Размер:  7.97 ГБ (8 556 632 111 байт)
Приватный:  Нет (DHT включён)
Хэш:  5f719b25b54bbe18be74
abdff686ccee8a017c20
Здоровье:  100%
.torrent скачан:  12
Как тут качать  Правила, основные инструкции, FAQ-и



_________________


 Профиль  
 
Показать сообщения за:  Поле сортировки  
Начать новую тему Ответить на тему  [ 1 сообщение ] 


Кто сейчас на трекере

Сейчас этот форум просматривают: Black_762 и гости: 1


Вы не можете начинать темы
Вы не можете отвечать на сообщения
Вы не можете редактировать свои сообщения
Вы не можете удалять свои сообщения
Вы не можете добавлять вложения

Найти:


Правообладателям

!ВНИМАНИЕ!
Ресурс не предоставляет электронные версии произведений, а занимается лишь коллекционированием и каталогизацией ссылок, присылаемых и публикуемых на форуме нашими читателями. Если вы являетесь правообладателем какого-либо представленного материала и не желаете чтобы ссылка на него находилась в нашем каталоге, свяжитесь с нами и мы незамедлительно удалим её. Файлы для обмена на трекере предоставлены пользователями сайта, и администрация не несёт ответственности за их содержание. Просьба не заливать файлы, защищенные авторскими правами, а также файлы нелегального содержания!
cron
Вверх страницы
Вниз страницы
ppkBB3cker v.2 © 2008-2011 @ PPK