3d-tracker.ru • Просмотр темы - Ледяные акулы в 3Д / Ice Sharks 3D (2016) [BDRip, 1080p, HSBS / Горизонтальная анаморфная стереопара]

Регистрация Имя: Пароль: Запомнить Забыли пароль?



Правила форума





Начать новую тему Ответить на тему  [ 1 сообщение ] 
Статистика раздачи
Размер: 8.43 ГБ | Зарегистрирован: 28 ноя 2016, 15:21 | .torrent скачан: 4
Сиды: 1 [0 байт/сек]    Личи: 1 [0 байт/сек]
Автор Сообщение
 СообщениеДобавлено: 28 ноя 2016, 15:21 
Не в сети
Бывалый
Зарегистрирован: 07 июн 2014, 08:13
Торренты: 51
Раздал: 1.52 ТБ 
Скачал: 946.23 ГБ 
Ратио: 1.644
Спасибо: 203 / 430
Сообщения: 150
Комментарии: 157

Название: Ледяные акулы
Оригинальное название: Ice Sharks
Год выхода: 2016
Жанр: ужасы, фантастика, боевик, приключения

Режиссер: Эмиль Эдвин Смит
В ролях: Эдвард ДеРуитер, Дженна Паркер, Каиви Лайман-Мерсеро, Кларисса Тибо, Трэвис Линкольн Кокс, Миа Данель, Ледди Гарсиа, Шамар Филипп, Джим Хелтон, Эмиль Эдвин Смит
О фильме: Стая голодных и агрессивных акул нападает на арктическую научно-исследовательскую станцию, пожирая всех на своем пути. Станция тонет в ледяной воде, а оставшиеся в живых исследователи встают перед выбором: дать акулам отпор или разделить печальную судьбу погибших.

Страна: США
Студия: Syfy, Global Asylum
Продолжительность: 01:25:22
Перевод: любительский одноголосый (Ozeon)

Качество: BDRip (1080р) by SOLdAt
Видео: AVC, 13500 Кбит/с, 29,970 fps, 1920х1080
Аудио: Русский, английский (AC3, 2 ch, 192 Кбит/с)
Размер: 8,43 Гб

Формат 3D: Half SideBySide / Горизонтальная анаморфная стереопара ("No Ghost")
Порядок ракурсов: Левый-первый
Полное имя : E:\AV\ice.sharks.3d.mkv
Формат : Matroska
Версия формата : Version 4 / Version 2
Размер файла : 8,43 Гбайт
Продолжительность : 1 ч. 25 м.
Режим общего битрейта : Переменный
Общий поток : 14,1 Мбит/сек
Дата кодирования : UTC 2016-11-28 08:48:20
Программа кодирования : mkvmerge v8.3.0 ('Over the Horizon') 64bit
Библиотека кодирования : libebml v1.3.1 + libmatroska v1.4.2
DURATION : 01:25:21.728000000
Видео
Идентификатор : 1
Формат : MPEG Video
Версия формата : Version 2
Профиль формата : High@4.1
Идентификатор кодека : V_MPEG2
Продолжительность : 1 ч. 25 м.
Битрейт : 13,5 Мбит/сек
Ширина : 1920 пикселей
Высота : 1080 пикселей
Соотношение сторон : 16:9
Режим частоты кадров : Постоянный
Частота кадров : 29,970 кадров/сек
Цветовое пространство : YUV
Субдискретизация насыщенности : 4:2:0
Битовая глубина : 8 бит
Бит/(Пиксели*Кадры) : 0.217
Размер потока : 8,03 Гбайт (95%)
Язык : English
Default : Да
Forced : Нет
Аудио #1
Идентификатор : 2
Формат : AC-3
Формат/Информация : Audio Coding 3
Расширение режима : CM (complete main)
Параметр Endianness формата : Big
Идентификатор кодека : A_AC3
Продолжительность : 1 ч. 25 м.
Вид битрейта : Постоянный
Битрейт : 192 Кбит/сек
Каналы : 2 канала
Расположение каналов : Front: L R
Частота : 48,0 КГц
Битовая глубина : 16 бит
Размер потока : 117 Мбайт (1%)
Язык : Russian
Default : Да
Forced : Нет
Аудио #2
Идентификатор : 3
Формат : AC-3
Формат/Информация : Audio Coding 3
Расширение режима : CM (complete main)
Параметр Endianness формата : Big
Идентификатор кодека : A_AC3
Продолжительность : 1 ч. 25 м.
Вид битрейта : Постоянный
Битрейт : 192 Кбит/сек
Каналы : 2 канала
Расположение каналов : Front: L R
Частота : 48,0 КГц
Битовая глубина : 16 бит
Размер потока : 117 Мбайт (1%)
Язык : English
Default : Нет
Forced : Нет

Информация о торренте
Торрент:  Зарегистрирован [28 ноя 2016, 15:21] Для скачивания необходимо Зарегистрироваться!



Если Вы уже зарегистрированы, то авторизуйтесь на трекере!
Статус:   изменил Soldat (28 ноя 2016, 15:38)
Размер:  8.43 ГБ (9 049 978 792 байт)
Приватный:  Нет (DHT включён)
Хэш:  ad88ad0c571ed246cd0f
7c6f59cc96a59d503ed9
Здоровье:  100%
.torrent скачан:  4
Как тут качать  Правила, основные инструкции, FAQ-и




 Профиль  
 
Показать сообщения за:  Поле сортировки  
Начать новую тему Ответить на тему  [ 1 сообщение ] 


Кто сейчас на трекере

Сейчас этот форум просматривают: Yahoo [Bot] и гости: 11


Вы не можете начинать темы
Вы не можете отвечать на сообщения
Вы не можете редактировать свои сообщения
Вы не можете удалять свои сообщения
Вы не можете добавлять вложения

Найти:


Правообладателям

!ВНИМАНИЕ!
Ресурс не предоставляет электронные версии произведений, а занимается лишь коллекционированием и каталогизацией ссылок, присылаемых и публикуемых на форуме нашими читателями. Если вы являетесь правообладателем какого-либо представленного материала и не желаете чтобы ссылка на него находилась в нашем каталоге, свяжитесь с нами и мы незамедлительно удалим её. Файлы для обмена на трекере предоставлены пользователями сайта, и администрация не несёт ответственности за их содержание. Просьба не заливать файлы, защищенные авторскими правами, а также файлы нелегального содержания!
cron
Вверх страницы
Вниз страницы
ppkBB3cker v.2 © 2008-2011 @ PPK