3d-tracker.ru • Просмотр темы - Отряд самоубийц в 3Д / Suicide Squad 3D (2016) [BDRip-AVC by SOLdAt, 1080p, Half OverUnder / Вертикальная анаморфная стереопара]

Регистрация Имя: Пароль: Запомнить Забыли пароль?



Правила форума





Начать новую тему Ответить на тему  [ 1 сообщение ] 
Статистика раздачи
Размер: 12.19 ГБ | Зарегистрирован: 01 дек 2016, 20:23 | .torrent скачан: 18
Сиды: 5 [0 байт/сек]    Личи: 3 [0 байт/сек]
Автор Сообщение
 СообщениеДобавлено: 01 дек 2016, 20:23 
Не в сети
Супермодератор
Аватара пользователя
Зарегистрирован: 15 апр 2014, 21:21
Торренты: 427
Раздал: 30.04 ТБ 
Скачал: 1.83 ТБ 
Ратио: 27.484
Спасибо: 2392 / 157
Сообщения: 576
Комментарии: 251
Откуда: РОССИЯ, ЦФО

Название: Отряд самоубийц
Оригинальное название: Suicide Squad
Год выпуска: 2016
Жанр: Фантастика, боевик, триллер, комедия, криминал, приключения
Выпущено: США, DC Comics, Warner Bros. Pictures

Режиссер: Дэвид Эйр
В ролях: Марго Робби, Уилл Смит, Джаред Лето, Джай Кортни, Кара Делевинь, Джей Эрнандес, Юэль Киннаман, Виола Дэвис
О фильме: После того, как Супермен напоролся на несовместимые с жизнью обстоятельства, в Метро-Сити наступили смутные времена. Налоги, катаклизмы, покемоны, бандитизм и недобор в армию. С последним мириться было нельзя и за дело взялся знающий человек - местный военком с добрым лицом тети Тани из передачи "Спокойной ночи, малыши". Она собрала всех гопников, тунеядцев, бомжей и калек в районе и определила их в добровольный отряд дружинников "Городские хризантемы". Все вместе они вступают в кровавую стычку с бандой древних сущностей из потустороннего астрала, терроризирующих торговые палатки выходцев из солнечного Готэма, а также совершают еще множество глупых подвигов.

Качество: BDRip (1080p) by SOLdAt
Видео: MPEG-4 AVC, 13,0 Мбит/сек, 1920x1080
Аудио: Русский (AC3, 6 ch, 448 Кбит/с), английский (AC3, 6 ch, 640 Кбит/с)
Размер: 12,2 Гб
Продолжительность: 02:02:52
Перевод: Дублированный
Субтитры: Русские, английские

Формат 3D: Half OverUnder / Вертикальная анаморфная стереопара на весь экран (16:9)
Порядок ракурсов: верхний ракурс первый.
Полное имя : E:\AV\Suicide.Squad.2016.3D.HOU.1080p.mkv
Формат : Matroska
Версия формата : Version 4 / Version 2
Размер файла : 12,2 Гбайт
Продолжительность : 2 ч. 2 м.
Общий поток : 14,2 Мбит/сек
Название фильма : BD_VOLUME.Title0
Дата кодирования : UTC 2016-12-01 14:07:27
Программа кодирования : mkvmerge v7.1.0 ('Good Love') 64bit built on Jul 27 2014 13:06:55
Библиотека кодирования : libebml v1.3.0 + libmatroska v1.4.1
DURATION : 02:02:15.536000000
Видео
Идентификатор : 1
Формат : AVC
Формат/Информация : Advanced Video Codec
Профиль формата : Main@L4.1
Параметр CABAC формата : Да
Параметр ReFrames формата : 4 кадра
Идентификатор кодека : V_MPEG4/ISO/AVC
Продолжительность : 2 ч. 2 м.
Битрейт : 13,0 Мбит/сек
Ширина : 1920 пикселей
Высота : 1080 пикселей
Соотношение сторон : 16:9
Режим частоты кадров : Постоянный
Частота кадров : 23,976 кадра/сек
Цветовое пространство : YUV
Субдискретизация насыщенности : 4:2:0
Битовая глубина : 8 бит
Тип развёртки : Прогрессивная
Бит/(Пиксели*Кадры) : 0.261
Размер потока : 11,0 Гбайт (90%)
Заголовок : 1080p, Zoom HOU
Язык : English
Default : Да
Forced : Нет
Аудио #1
Идентификатор : 2
Формат : AC-3
Формат/Информация : Audio Coding 3
Расширение режима : CM (complete main)
Параметр Endianness формата : Big
Идентификатор кодека : A_AC3
Продолжительность : 2 ч. 2 м.
Вид битрейта : Постоянный
Битрейт : 448 Кбит/сек
Каналы : 6 каналов
Расположение каналов : Front: L C R, Side: L R, LFE
Частота : 48,0 КГц
Битовая глубина : 16 бит
Размер потока : 394 Мбайт (3%)
Заголовок : 6 ch, 448 kb/s
Язык : Russian
Default : Да
Forced : Нет
Аудио #2
Идентификатор : 3
Формат : AC-3
Формат/Информация : Audio Coding 3
Расширение режима : CM (complete main)
Параметр Endianness формата : Big
Идентификатор кодека : A_AC3
Продолжительность : 2 ч. 2 м.
Вид битрейта : Постоянный
Битрейт : 640 Кбит/сек
Каналы : 6 каналов
Расположение каналов : Front: L C R, Side: L R, LFE
Частота : 48,0 КГц
Битовая глубина : 16 бит
Размер потока : 563 Мбайт (5%)
Заголовок : 6 ch, 640 kb/s
Язык : English
Default : Нет
Forced : Нет
Текст #1
Идентификатор : 4
Формат : PGS
Режим смешивания : zlib
Идентификатор кодека : S_HDMV/PGS
Идентификатор кодека/Информация : The same subtitle format used on BDs/HD-DVDs
Язык : Russian
Default : Нет
Forced : Нет
Текст #2
Идентификатор : 5
Формат : PGS
Режим смешивания : zlib
Идентификатор кодека : S_HDMV/PGS
Идентификатор кодека/Информация : The same subtitle format used on BDs/HD-DVDs
Язык : Russian
Default : Нет
Forced : Нет
Текст #3
Идентификатор : 6
Формат : PGS
Режим смешивания : zlib
Идентификатор кодека : S_HDMV/PGS
Идентификатор кодека/Информация : The same subtitle format used on BDs/HD-DVDs
Язык : English
Default : Нет

Информация о торренте
Торрент:  Зарегистрирован [01 дек 2016, 20:23] Для скачивания необходимо Зарегистрироваться!



Если Вы уже зарегистрированы, то авторизуйтесь на трекере!
Статус:  
Размер:  12.19 ГБ (13 089 375 131 байт)
Приватный:  Нет (DHT включён)
Хэш:  fc50df694e04ccb9733c
55da415e42f81f7549ab
Здоровье:  100%
.torrent скачан:  18
Как тут качать  Правила, основные инструкции, FAQ-и



_________________


 Профиль  
 
Показать сообщения за:  Поле сортировки  
Начать новую тему Ответить на тему  [ 1 сообщение ] 


Кто сейчас на трекере

Сейчас этот форум просматривают: Bing [Bot] и гости: 1


Вы не можете начинать темы
Вы не можете отвечать на сообщения
Вы не можете редактировать свои сообщения
Вы не можете удалять свои сообщения
Вы не можете добавлять вложения

Найти:


Правообладателям

!ВНИМАНИЕ!
Ресурс не предоставляет электронные версии произведений, а занимается лишь коллекционированием и каталогизацией ссылок, присылаемых и публикуемых на форуме нашими читателями. Если вы являетесь правообладателем какого-либо представленного материала и не желаете чтобы ссылка на него находилась в нашем каталоге, свяжитесь с нами и мы незамедлительно удалим её. Файлы для обмена на трекере предоставлены пользователями сайта, и администрация не несёт ответственности за их содержание. Просьба не заливать файлы, защищенные авторскими правами, а также файлы нелегального содержания!
cron
Вверх страницы
Вниз страницы
ppkBB3cker v.2 © 2008-2011 @ PPK