3d-tracker.ru • Просмотр темы - Звёздный крейсер Галактика: Кровь и Хром / Battlestar Galactica: Blood and Chrome (2012) [2d->3D, BDRip-AVC by SOLdAt, , 1080p, Half OverUnder / Вертикальная анаморфная стереопара]

Регистрация Имя: Пароль: Запомнить Забыли пароль?



Правила форума





Начать новую тему Ответить на тему  [ 1 сообщение ] 
Статистика раздачи
Размер: 8.11 ГБ | Зарегистрирован: 05 дек 2016, 10:55 | .torrent скачан: 6
Сиды: 0 [0 байт/сек]    Личи: 0 [0 байт/сек]
Автор Сообщение
 СообщениеДобавлено: 05 дек 2016, 10:55 
Не в сети
Супермодератор
Аватара пользователя
Зарегистрирован: 15 апр 2014, 21:21
Торренты: 474
Раздал: 35.01 ТБ 
Скачал: 1.83 ТБ 
Ратио: 30.196
Спасибо: 2742 / 192
Сообщения: 626
Комментарии: 281
Откуда: РОССИЯ, ЦФО

Название: Звёздный крейсер Галактика: Кровь и Хром
Оригинальное название: Battlestar Galactica: Blood and Chrome
Год выхода: 2013
Жанр: фантастика, боевик, драма

Режиссер: Джонас Пейт
В ролях: Люк Паскуалино, Бен Коттон, Джилл Тид, Лили Бордан, Майк Допуд, Джозеф Фалсетти, Эдриан Холмс, Карен ЛеБлан, Тоби Левинс, Брайан Маркинсон
О фильме: События происходят на 10-м году первой войны с сайлонами в Двенадцати колониях Кобола. Энсин (мичман) Уильям Адама, недавний выпускник Летной академии, получает назначение на один из самых мощных кораблей в Колониальном флоте... звездный крейсер "Галактика". Талантливый молодой пилот волей случая участвует в опасном секретном задании на Ледяной планете, исход которого может изменить весь ход кровопролитной многолетней войны.

Изначально канал SyFy заказал съемки онлайн-сериала "Звездный Крейсер Галактика: Кровь и Хром" (BattleStar Galactica: Blood & Chrome). Однако потом заявил, что проект выйдет как полуторачасовой фильм с возможным продолжением в виде веб-эпизодов. В итоге показ полнометражного пилота назначили на февраль 2013г. А показ веб-версии начался с 9 ноября на онлайн-канале Machinima. Полуторачасовой пилот был разбит на 10 серий по 7-12 минут каждая. И все серии были показаны в течение четырех недель.

Страна: США
Продолжительность: 01:29:34
Перевод: Многоголосый (закадровый) [LostFilm Студия "Kravec"]
Размер: 8,11 Гб

Качество: BDRip (1080p) by SOLdAt
Видео: AVC, 12300 Кбит/с, 1920x1080, 29,970 fps
Аудио: Русский АС3, 6 ch, 384 Кбит/с

Формат 3D: Half OverUnder / Вертикальная анаморфная стереопара ("без двоения")
Порядок ракурсов: Верхний ракурс первый.
Полное имя : E:\AV\Zvezdniy.Kreyser.Galaktika.krov.i.hrom.2012.3D.1080p.HOU.by_SOLdAt.mkv
Формат : Matroska
Версия формата : Version 4 / Version 2
Размер файла : 8,11 Гбайт
Продолжительность : 1 ч. 29 м.
Название фильма : Звёздный крейсер"Галактика"-Кровь и хром(2012) from SOLdAt
Дата кодирования : UTC 2016-12-05 04:33:51
Программа кодирования : mkvmerge v7.1.0 ('Good Love') 64bit
Библиотека кодирования : libebml v1.3.0 + libmatroska v1.4.1
DURATION : 01:29:33.952000000

Видео
Идентификатор : 1
Формат : AVC
Версия формата : Version 2
Профиль формата : High@4.0
Параметр BVOP формата : Да
Параметр GOP формата : M=3, N=18
Идентификатор кодека : AVC
Идентификатор кодека/Информация : MPEG 1 or 2 Video
Продолжительность : 1 ч. 29 м.
Битрейт : 12,3 Мбит/сек
Ширина : 1920 пикселей
Высота : 1080 пикселей
Соотношение сторон : 16:9
Режим частоты кадров : Постоянный
Частота кадров : 29,970 кадров/сек
Цветовое пространство : YUV
Субдискретизация насыщенности : 4:2:0
Битовая глубина : 8 бит
Тип развёртки : Прогрессивная
Бит/(Пиксели*Кадры) : 0.198
Размер потока : 7,71 Гбайт (95%)
Заголовок : 1080p, hou, 29.979 fps
Язык : English
Default : Да
Forced : Нет

Аудио
Идентификатор : 2
Формат : AC-3
Формат/Информация : Audio Coding 3
Расширение режима : CM (complete main)
Параметр Endianness формата : Big
Идентификатор кодека : A_AC3
Продолжительность : 1 ч. 29 м.
Вид битрейта : Постоянный
Битрейт : 384 Кбит/сек
Каналы : 6 каналов
Расположение каналов : Front: L C R, Side: L R, LFE
Частота : 48,0 КГц
Битовая глубина : 16 бит
Размер потока : 246 Мбайт (3%)
Заголовок : 6 ch, 384 kb/s
Язык : Russian
Default : Да
Forced : Нет

Информация о торренте
Торрент:  Зарегистрирован [05 дек 2016, 10:55] Для скачивания необходимо Зарегистрироваться!



Если Вы уже зарегистрированы, то авторизуйтесь на трекере!
Статус:  
Размер:  8.11 ГБ (8 705 433 977 байт)
Приватный:  Нет (DHT включён)
Хэш:  e53fa18b7126cdbfce08
f15823e1ffc808bc49ea
Здоровье:  0%
.torrent скачан:  6
Как тут качать  Правила, основные инструкции, FAQ-и



_________________


 Профиль  
 
Показать сообщения за:  Поле сортировки  
Начать новую тему Ответить на тему  [ 1 сообщение ] 


Кто сейчас на трекере

Сейчас этот форум просматривают: нет зарегистрированных пользователей и гости: 1


Вы не можете начинать темы
Вы не можете отвечать на сообщения
Вы не можете редактировать свои сообщения
Вы не можете удалять свои сообщения
Вы не можете добавлять вложения

Найти:


Правообладателям

!ВНИМАНИЕ!
Ресурс не предоставляет электронные версии произведений, а занимается лишь коллекционированием и каталогизацией ссылок, присылаемых и публикуемых на форуме нашими читателями. Если вы являетесь правообладателем какого-либо представленного материала и не желаете чтобы ссылка на него находилась в нашем каталоге, свяжитесь с нами и мы незамедлительно удалим её. Файлы для обмена на трекере предоставлены пользователями сайта, и администрация не несёт ответственности за их содержание. Просьба не заливать файлы, защищенные авторскими правами, а также файлы нелегального содержания!
cron
Вверх страницы
Вниз страницы
ppkBB3cker v.2 © 2008-2011 @ PPK