3d-tracker.ru • Просмотр темы - Последний звездолёт в 3Д / The Last Starship 3D (2016) [1080p, Half OverUnder / Вертикальная анаморфная стереопара]

Регистрация Имя: Пароль: Запомнить Забыли пароль?



Правила форума





Начать новую тему Ответить на тему  [ 1 сообщение ] 
Статистика раздачи
Размер: 4.34 ГБ | Зарегистрирован: 14 дек 2016, 16:07 | .torrent скачан: 15
Сиды: 5 [0 байт/сек]    Личи: 0 [0 байт/сек]
Автор Сообщение
 СообщениеДобавлено: 14 дек 2016, 16:07 
Не в сети
Супермодератор
Аватара пользователя
Зарегистрирован: 15 апр 2014, 21:21
Торренты: 491
Раздал: 35.22 ТБ 
Скачал: 1.83 ТБ 
Ратио: 30.313
Спасибо: 2836 / 197
Сообщения: 649
Комментарии: 295
Откуда: РОССИЯ, ЦФО

Название: Последний звездолёт
Оригинальное название: The Last Starship
Год выпуска: 2016
Жанр: Фантастика
Выпущено: Великобритания

Режиссер: Свен Кнюппель
В ролях: Сесиль Декер, Ванида Карун, Фабиан Монастериос, Джим Уолкер
О фильме: Последние обломки далёкого пост-апокалиптического мира погрязли в раздорах. Под гнётом генетически усовершенствованной расы людей, свободнорожденным людям не остается выбора. Единственная альтернатива - блуждать по выжженной пустыне, спасаясь от мутантов и мятежников. Но в это время среди команды сверхтяжелого танка, отправленного в дозор, зарождается бунт. Легенды гласят, что люди Республики ЭЗО однажды вернутся на последнем уцелевшем звездолёте...

Качество: (1080p) by SOLdAt
Видео: AVC, ~7700 Кбит/с, 1920x1080, 23,976 fps
Аудио: Русский АС3, 2 ch, 192 Кбит/с
Размер: 4,34 Гб
Продолжительность: 01:17:40
Перевод: Профессиональный многоголосый

Формат 3D: Half OverUnder / Вертикальная анаморфная стереопара ("без двоения")
Порядок ракурсов: Верхний ракурс первый.
Полное имя : E:\AV\The.last.starship.2016.BDRip.1080p.H-OU.mkv
Формат : Matroska
Версия формата : Version 4 / Version 2
Размер файла : 4,34 Гбайт
Продолжительность : 1 ч. 17 м.
Общий поток : 8002 Кбит/сек
Название фильма : from SOLdAt
Дата кодирования : UTC 2016-12-14
Программа кодирования : mkvmerge v7.1.0 ('Good Love') 64bit
Библиотека кодирования : libebml v1.3.0 + libmatroska v1.4.1
DURATION : 01:17:39.936000000

Видео
Идентификатор : 1
Формат : AVC
Версия формата : Version 2
Профиль формата : High@4.0
Идентификатор кодека : V_MPEG2
Продолжительность : 1 ч. 17 м.
Битрейт : 7651 Кбит/сек
Ширина : 1920 пикселей
Высота : 1080 пикселей
Соотношение сторон : 16:9
Режим частоты кадров : Постоянный
Частота кадров : 23,976 кадра/сек
Цветовое пространство : YUV
Субдискретизация насыщенности : 4:2:0
Битовая глубина : 8 бит
Тип развёртки : Прогрессивная
Бит/(Пиксели*Кадры) : 0.154
Размер потока : 4,15 Гбайт (96%)
Язык : English
Default : Да
Forced : Нет

Аудио
Идентификатор : 2
Формат : AC-3
Формат/Информация : Audio Coding 3
Расширение режима : CM (complete main)
Параметр Endianness формата : Big
Идентификатор кодека : A_AC3
Продолжительность : 1 ч. 17 м.
Вид битрейта : Постоянный
Битрейт : 192 Кбит/сек
Каналы : 2 канала
Расположение каналов : Front: L R
Частота : 48,0 КГц
Битовая глубина : 16 бит
Размер потока : 107 Мбайт (2%)
Язык : Russian
Default : Да
Forced : Нет

Информация о торренте
Торрент:  Зарегистрирован [14 дек 2016, 16:07] Для скачивания необходимо Зарегистрироваться!



Если Вы уже зарегистрированы, то авторизуйтесь на трекере!
Статус:  
Размер:  4.34 ГБ (4 661 391 958 байт)
Приватный:  Нет (DHT включён)
Хэш:  5e35bb26ace193e6cf04
3eb63aab959de3bd548b
Здоровье:  100%
.torrent скачан:  15
Как тут качать  Правила, основные инструкции, FAQ-и



_________________


 Профиль  
 
Показать сообщения за:  Поле сортировки  
Начать новую тему Ответить на тему  [ 1 сообщение ] 


Кто сейчас на трекере

Сейчас этот форум просматривают: нет зарегистрированных пользователей и гости: 4


Вы не можете начинать темы
Вы не можете отвечать на сообщения
Вы не можете редактировать свои сообщения
Вы не можете удалять свои сообщения
Вы не можете добавлять вложения

Найти:


Правообладателям

!ВНИМАНИЕ!
Ресурс не предоставляет электронные версии произведений, а занимается лишь коллекционированием и каталогизацией ссылок, присылаемых и публикуемых на форуме нашими читателями. Если вы являетесь правообладателем какого-либо представленного материала и не желаете чтобы ссылка на него находилась в нашем каталоге, свяжитесь с нами и мы незамедлительно удалим её. Файлы для обмена на трекере предоставлены пользователями сайта, и администрация не несёт ответственности за их содержание. Просьба не заливать файлы, защищенные авторскими правами, а также файлы нелегального содержания!
cron
Вверх страницы
Вниз страницы
ppkBB3cker v.2 © 2008-2011 @ PPK